999
dxfrw 0.6.3
  0
SECTION
  2
HEADER
  9
$ACADVER
  1
AC1021
  9
$DWGCODEPAGE
  3
ANSI_1252
  9
$INSBASE
 10
0
 20
0
 30
0
  9
$EXTMIN
 10
-103.125
 20
168.1
 30
0
  9
$EXTMAX
 10
101.25
 20
900
 30
0
  9
$LIMMIN
 10
0
 20
0
  9
$LIMMAX
 10
420
 20
297
  9
$ORTHOMODE
 70
    0
  9
$REGENMODE
 70
    1
  9
$FILLMODE
 70
    1
  9
$QTEXTMODE
 70
    0
  9
$MIRRTEXT
 70
    0
  9
$LTSCALE
 40
1
  9
$ATTMODE
 70
    0
  9
$TEXTSIZE
 40
2.5
  9
$TRACEWID
 40
15.68
  9
$TEXTSTYLE
  7
STANDARD
  9
$CLAYER
  8
middle
  9
$CELTYPE
  6
BYLAYER
  9
$CECOLOR
 62
  256
  9
$CELTSCALE
 40
1
  9
$DISPSILH
 70
    0
  9
$DIMSCALE
 40
1
  9
$DIMASZ
 40
2.5
  9
$DIMEXO
 40
0.625
  9
$DIMDLI
 40
3.75
  9
$DIMRND
 40
0
  9
$DIMDLE
 40
0
  9
$DIMEXE
 40
1.25
  9
$DIMTP
 40
0
  9
$DIMTM
 40
0
  9
$DIMTXT
 40
2.5
  9
$DIMCEN
 40
2.5
  9
$DIMTSZ
 40
0
  9
$DIMTOL
 70
    0
  9
$DIMLIM
 70
    0
  9
$DIMTIH
 70
    0
  9
$DIMTOH
 70
    0
  9
$DIMSE1
 70
    0
  9
$DIMSE2
 70
    0
  9
$DIMTAD
 70
    1
  9
$DIMZIN
 70
    8
  9
$DIMBLK
  1

  9
$DIMASO
 70
    1
  9
$DIMSHO
 70
    1
  9
$DIMPOST
  1

  9
$DIMAPOST
  1

  9
$DIMALT
 70
    0
  9
$DIMALTD
 70
    3
  9
$DIMALTF
 40
0.03937
  9
$DIMLFAC
 40
1
  9
$DIMTOFL
 70
    1
  9
$DIMTVP
 40
0
  9
$DIMTIX
 70
    0
  9
$DIMSOXD
 70
    0
  9
$DIMSAH
 70
    0
  9
$DIMBLK1
  1

  9
$DIMBLK2
  1

  9
$DIMSTYLE
  2
STANDARD
  9
$DIMCLRD
 70
    0
  9
$DIMCLRE
 70
    0
  9
$DIMCLRT
 70
    0
  9
$DIMTFAC
 40
1
  9
$DIMGAP
 40
0.625
  9
$DIMJUST
 70
    0
  9
$DIMSD1
 70
    0
  9
$DIMSD2
 70
    0
  9
$DIMTOLJ
 70
    0
  9
$DIMTZIN
 70
    8
  9
$DIMALTZ
 70
    0
  9
$DIMALTTZ
 70
    0
  9
$DIMUPT
 70
    0
  9
$DIMDEC
 70
    2
  9
$DIMTDEC
 70
    2
  9
$DIMALTU
 70
    2
  9
$DIMALTTD
 70
    3
  9
$DIMTXSTY
  7
STANDARD
  9
$DIMAUNIT
 70
    0
  9
$DIMADEC
 70
    0
  9
$DIMALTRND
 40
0
  9
$DIMAZIN
 70
    0
  9
$DIMDSEP
 70
   44
  9
$DIMATFIT
 70
    3
  9
$DIMFRAC
 70
    0
  9
$DIMLDRBLK
  1
STANDARD
  9
$DIMLUNIT
 70
    2
  9
$DIMLWD
 70
   -2
  9
$DIMLWE
 70
   -2
  9
$DIMTMOVE
 70
    0
  9
$DIMFXL
 40
1
  9
$DIMFXLON
 70
    0
  9
$DIMJOGANG
 40
0.7854
  9
$DIMTFILL
 70
    0
  9
$DIMTFILLCLR
 70
    0
  9
$DIMARCSYM
 70
    0
  9
$DIMLTYPE
  6

  9
$DIMLTEX1
  6

  9
$DIMLTEX2
  6

  9
$LUNITS
 70
    2
  9
$LUPREC
 70
    4
  9
$SKETCHINC
 40
1
  9
$FILLETRAD
 40
0
  9
$AUNITS
 70
    0
  9
$AUPREC
 70
    2
  9
$MENU
  1
.
  9
$ELEVATION
 40
0
  9
$PELEVATION
 40
0
  9
$THICKNESS
 40
0
  9
$LIMCHECK
 70
    0
  9
$CHAMFERA
 40
0
  9
$CHAMFERB
 40
0
  9
$CHAMFERC
 40
0
  9
$CHAMFERD
 40
0
  9
$SKPOLY
 70
    0
  9
$USRTIMER
 70
    1
  9
$ANGBASE
 50
0
  9
$ANGDIR
 70
    0
  9
$PDMODE
 70
   34
  9
$PDSIZE
 40
0
  9
$PLINEWID
 40
0
  9
$SPLFRAME
 70
    0
  9
$SPLINETYPE
 70
    2
  9
$SPLINESEGS
 70
    8
  9
$HANDSEED
  5
20000
  9
$SURFTAB1
 70
    6
  9
$SURFTAB2
 70
    6
  9
$SURFTYPE
 70
    6
  9
$SURFU
 70
    6
  9
$SURFV
 70
    6
  9
$UCSBASE
  2

  9
$UCSNAME
  2

  9
$UCSORG
 10
0
 20
0
 30
0
  9
$UCSXDIR
 10
1
 20
0
 30
0
  9
$UCSYDIR
 10
0
 20
1
 30
0
  9
$UCSORTHOREF
  2

  9
$UCSORTHOVIEW
 70
    0
  9
$UCSORGTOP
 10
0
 20
0
 30
0
  9
$UCSORGBOTTOM
 10
0
 20
0
 30
0
  9
$UCSORGLEFT
 10
0
 20
0
 30
0
  9
$UCSORGRIGHT
 10
0
 20
0
 30
0
  9
$UCSORGFRONT
 10
0
 20
0
 30
0
  9
$UCSORGBACK
 10
0
 20
0
 30
0
  9
$PUCSBASE
  2

  9
$PUCSNAME
  2

  9
$PUCSORG
 10
0
 20
0
 30
0
  9
$PUCSXDIR
 10
1
 20
0
 30
0
  9
$PUCSYDIR
 10
0
 20
1
 30
0
  9
$PUCSORTHOREF
  2

  9
$PUCSORTHOVIEW
 70
    0
  9
$PUCSORGTOP
 10
0
 20
0
 30
0
  9
$PUCSORGBOTTOM
 10
0
 20
0
 30
0
  9
$PUCSORGLEFT
 10
0
 20
0
 30
0
  9
$PUCSORGRIGHT
 10
0
 20
0
 30
0
  9
$PUCSORGFRONT
 10
0
 20
0
 30
0
  9
$PUCSORGBACK
 10
0
 20
0
 30
0
  9
$USERI1
 70
    0
  9
$USERI2
 70
    0
  9
$USERI3
 70
    0
  9
$USERI4
 70
    0
  9
$USERI5
 70
    0
  9
$USERR1
 40
0
  9
$USERR2
 40
0
  9
$USERR3
 40
0
  9
$USERR4
 40
0
  9
$USERR5
 40
0
  9
$WORLDVIEW
 70
    1
  9
$SHADEDGE
 70
    3
  9
$SHADEDIF
 70
   70
  9
$TILEMODE
 70
    1
  9
$MAXACTVP
 70
   64
  9
$PINSBASE
 10
0
 20
0
 30
0
  9
$PLIMCHECK
 70
    0
  9
$PEXTMIN
 10
0
 20
0
 30
0
  9
$PEXTMAX
 10
0
 20
0
 30
0
  9
$GRIDMODE
 70
    1
  9
$SNAPSTYLE
 70
    0
  9
$PLIMMIN
 10
0
 20
0
  9
$PLIMMAX
 10
210
 20
297
  9
$UNITMODE
 70
    0
  9
$VISRETAIN
 70
    1
  9
$PLINEGEN
 70
    0
  9
$PSLTSCALE
 70
    1
  9
$TREEDEPTH
 70
 3020
  9
$CMLSTYLE
  2
Standard
  9
$CMLJUST
 70
    0
  9
$CMLSCALE
 40
20
  9
$PROXYGRAPHICS
 70
    1
  9
$MEASUREMENT
 70
    1
  9
$CELWEIGHT
370
   -1
  9
$ENDCAPS
280
    0
  9
$JOINSTYLE
280
    0
  9
$LWDISPLAY
290
    0
  9
$INSUNITS
 70
    4
  9
$HYPERLINKBASE
  1

  9
$STYLESHEET
  1

  9
$XEDIT
290
    1
  9
$CEPSNTYPE
380
    0
  9
$PSTYLEMODE
290
    1
  9
$EXTNAMES
290
    1
  9
$PSVPSCALE
 40
1
  9
$OLESTARTUP
290
    0
  9
$SORTENTS
280
  127
  9
$INDEXCTL
280
    0
  9
$HIDETEXT
280
    1
  9
$XCLIPFRAME
290
    0
  9
$HALOGAP
280
    0
  9
$OBSCOLOR
 70
  257
  9
$OBSLTYPE
280
    0
  9
$INTERSECTIONDISPLAY
280
    0
  9
$INTERSECTIONCOLOR
 70
  257
  9
$DIMASSOC
280
    1
  9
$PROJECTNAME
  1

  9
$CAMERADISPLAY
290
    0
  9
$LENSLENGTH
 40
50
  9
$CAMERAHEIGHT
 40
0
  9
$STEPSPERSEC
 40
2
  9
$STEPSIZE
 40
50
  9
$3DDWFPREC
 40
2
  9
$PSOLWIDTH
 40
5
  9
$PSOLHEIGHT
 40
80
  9
$LOFTANG1
 40
1.570796326794897
  9
$LOFTANG2
 40
1.570796326794897
  9
$LOFTMAG1
 40
0
  9
$LOFTMAG2
 40
0
  9
$LOFTPARAM
 70
    7
  9
$LOFTNORMALS
280
    1
  9
$LATITUDE
 40
1
  9
$LONGITUDE
 40
1
  9
$NORTHDIRECTION
 40
0
  9
$TIMEZONE
 70
-8000
  9
$LIGHTGLYPHDISPLAY
280
    1
  9
$TILEMODELIGHTSYNCH
280
    1
  9
$SOLIDHIST
280
    1
  9
$SHOWHIST
280
    1
  9
$DWFFRAME
280
    2
  9
$DGNFRAME
280
    0
  9
$REALWORLDSCALE
290
    1
  9
$INTERFERECOLOR
 62
    1
  9
$CSHADOW
280
    0
  9
$SHADOWPLANELOCATION
 40
0
  0
ENDSEC
  0
SECTION
  2
CLASSES
  0
ENDSEC
  0
SECTION
  2
TABLES
  0
TABLE
  2
VPORT
  5
8
330
0
100
AcDbSymbolTable
 70
    1
  0
VPORT
  5
31
330
2
100
AcDbSymbolTableRecord
100
AcDbViewportTableRecord
  2
*ACTIVE
 70
    0
 10
0
 20
0
 11
1
 21
1
 12
53.14056139152903
 22
302.828404642138
 13
0
 23
0
 14
10
 24
10
 15
10
 25
10
 16
0
 26
0
 36
1
 17
0
 27
0
 37
0
 40
118.7603152820473
 41
1.628721541155867
 42
50
 43
0
 44
0
 50
0
 51
0
 71
    0
 72
  100
 73
    1
 74
    3
 75
    0
 76
    1
 77
    0
 78
    0
281
    0
 65
    1
110
0
120
0
130
0
111
1
121
0
131
0
112
0
122
1
132
0
 79
    0
146
0
348
10020
 60
    7
 61
    5
292
1
282
    1
141
0
142
0
 63
  250
421
3358443
  0
ENDTAB
  0
TABLE
  2
LTYPE
  5
5
330
0
100
AcDbSymbolTable
 70
    4
  0
LTYPE
  5
14
330
5
100
AcDbSymbolTableRecord
100
AcDbLinetypeTableRecord
  2
ByBlock
 70
    0
  3

 72
   65
 73
    0
 40
0
  0
LTYPE
  5
15
330
5
100
AcDbSymbolTableRecord
100
AcDbLinetypeTableRecord
  2
ByLayer
 70
    0
  3

 72
   65
 73
    0
 40
0
  0
LTYPE
  5
16
330
5
100
AcDbSymbolTableRecord
100
AcDbLinetypeTableRecord
  2
Continuous
 70
    0
  3
Solid line
 72
   65
 73
    0
 40
0
  0
LTYPE
  5
32
330
5
100
AcDbSymbolTableRecord
100
AcDbLinetypeTableRecord
  2
DOT
 70
    0
  3
Dot . . . . . . . . . . . . . . . . . . . . . .
 72
   65
 73
    2
 40
6.35
 49
0
 74
    0
 49
-6.35
 74
    0
  0
LTYPE
  5
33
330
5
100
AcDbSymbolTableRecord
100
AcDbLinetypeTableRecord
  2
DOTTINY
 70
    0
  3
Dot (.15x) .....................................
 72
   65
 73
    2
 40
0.9525
 49
0
 74
    0
 49
-0.9525
 74
    0
  0
LTYPE
  5
34
330
5
100
AcDbSymbolTableRecord
100
AcDbLinetypeTableRecord
  2
DOT2
 70
    0
  3
Dot (.5x) .....................................
 72
   65
 73
    2
 40
3.175
 49
0
 74
    0
 49
-3.175
 74
    0
  0
LTYPE
  5
35
330
5
100
AcDbSymbolTableRecord
100
AcDbLinetypeTableRecord
  2
DOTX2
 70
    0
  3
Dot (2x) .  .  .  .  .  .  .  .  .  .  .  .  .
 72
   65
 73
    2
 40
12.7
 49
0
 74
    0
 49
-12.7
 74
    0
  0
LTYPE
  5
36
330
5
100
AcDbSymbolTableRecord
100
AcDbLinetypeTableRecord
  2
DASHED
 70
    0
  3
Dashed _ _ _ _ _ _ _ _ _ _ _ _ _ _ _ _ _
 72
   65
 73
    2
 40
19.05
 49
12.7
 74
    0
 49
-6.35
 74
    0
  0
LTYPE
  5
37
330
5
100
AcDbSymbolTableRecord
100
AcDbLinetypeTableRecord
  2
DASHEDTINY
 70
    0
  3
Dashed (.15x) _ _ _ _ _ _ _ _ _ _ _ _ _ _ _ _ _
 72
   65
 73
    2
 40
2.8575
 49
1.905
 74
    0
 49
-0.9525
 74
    0
  0
LTYPE
  5
38
330
5
100
AcDbSymbolTableRecord
100
AcDbLinetypeTableRecord
  2
DASHED2
 70
    0
  3
Dashed (.5x) _ _ _ _ _ _ _ _ _ _ _ _ _ _ _ _ _
 72
   65
 73
    2
 40
9.524999999999999
 49
6.35
 74
    0
 49
-3.175
 74
    0
  0
LTYPE
  5
39
330
5
100
AcDbSymbolTableRecord
100
AcDbLinetypeTableRecord
  2
DASHEDX2
 70
    0
  3
Dashed (2x) ____  ____  ____  ____  ____  ___
 72
   65
 73
    2
 40
38.09999999999999
 49
25.4
 74
    0
 49
-12.7
 74
    0
  0
LTYPE
  5
3A
330
5
100
AcDbSymbolTableRecord
100
AcDbLinetypeTableRecord
  2
DASHDOT
 70
    0
  3
Dash dot __ . __ . __ . __ . __ . __ . __ . __
 72
   65
 73
    4
 40
25.4
 49
12.7
 74
    0
 49
-6.35
 74
    0
 49
0
 74
    0
 49
-6.35
 74
    0
  0
LTYPE
  5
3B
330
5
100
AcDbSymbolTableRecord
100
AcDbLinetypeTableRecord
  2
DASHDOTTINY
 70
    0
  3
Dash dot (.15x) _._._._._._._._._._._._._._._.
 72
   65
 73
    4
 40
3.81
 49
1.905
 74
    0
 49
-0.9525
 74
    0
 49
0
 74
    0
 49
-0.9525
 74
    0
  0
LTYPE
  5
3C
330
5
100
AcDbSymbolTableRecord
100
AcDbLinetypeTableRecord
  2
DASHDOT2
 70
    0
  3
Dash dot (.5x) _._._._._._._._._._._._._._._.
 72
   65
 73
    4
 40
12.7
 49
6.35
 74
    0
 49
-3.175
 74
    0
 49
0
 74
    0
 49
-3.175
 74
    0
  0
LTYPE
  5
3D
330
5
100
AcDbSymbolTableRecord
100
AcDbLinetypeTableRecord
  2
DASHDOTX2
 70
    0
  3
Dash dot (2x) ____  .  ____  .  ____  .  ___
 72
   65
 73
    4
 40
50.8
 49
25.4
 74
    0
 49
-12.7
 74
    0
 49
0
 74
    0
 49
-12.7
 74
    0
  0
LTYPE
  5
3E
330
5
100
AcDbSymbolTableRecord
100
AcDbLinetypeTableRecord
  2
DIVIDE
 70
    0
  3
Divide ____ . . ____ . . ____ . . ____ . . ____
 72
   65
 73
    6
 40
31.75
 49
12.7
 74
    0
 49
-6.35
 74
    0
 49
0
 74
    0
 49
-6.35
 74
    0
 49
0
 74
    0
 49
-6.35
 74
    0
  0
LTYPE
  5
3F
330
5
100
AcDbSymbolTableRecord
100
AcDbLinetypeTableRecord
  2
DIVIDETINY
 70
    0
  3
Divide (.15x) __..__..__..__..__..__..__..__.._
 72
   65
 73
    6
 40
4.7625
 49
1.905
 74
    0
 49
-0.9525
 74
    0
 49
0
 74
    0
 49
-0.9525
 74
    0
 49
0
 74
    0
 49
-0.9525
 74
    0
  0
LTYPE
  5
40
330
5
100
AcDbSymbolTableRecord
100
AcDbLinetypeTableRecord
  2
DIVIDE2
 70
    0
  3
Divide (.5x) __..__..__..__..__..__..__..__.._
 72
   65
 73
    6
 40
15.875
 49
6.35
 74
    0
 49
-3.175
 74
    0
 49
0
 74
    0
 49
-3.175
 74
    0
 49
0
 74
    0
 49
-3.175
 74
    0
  0
LTYPE
  5
41
330
5
100
AcDbSymbolTableRecord
100
AcDbLinetypeTableRecord
  2
DIVIDEX2
 70
    0
  3
Divide (2x) ________  .  .  ________  .  .  _
 72
   65
 73
    6
 40
63.5
 49
25.4
 74
    0
 49
-12.7
 74
    0
 49
0
 74
    0
 49
-12.7
 74
    0
 49
0
 74
    0
 49
-12.7
 74
    0
  0
LTYPE
  5
42
330
5
100
AcDbSymbolTableRecord
100
AcDbLinetypeTableRecord
  2
BORDER
 70
    0
  3
Border __ __ . __ __ . __ __ . __ __ . __ __ .
 72
   65
 73
    6
 40
44.45
 49
12.7
 74
    0
 49
-6.35
 74
    0
 49
12.7
 74
    0
 49
-6.35
 74
    0
 49
0
 74
    0
 49
-6.35
 74
    0
  0
LTYPE
  5
43
330
5
100
AcDbSymbolTableRecord
100
AcDbLinetypeTableRecord
  2
BORDERTINY
 70
    0
  3
Border (.15x) __.__.__.__.__.__.__.__.__.__.__.
 72
   65
 73
    6
 40
6.6675
 49
1.905
 74
    0
 49
-0.9525
 74
    0
 49
1.905
 74
    0
 49
-0.9525
 74
    0
 49
0
 74
    0
 49
-0.9525
 74
    0
  0
LTYPE
  5
44
330
5
100
AcDbSymbolTableRecord
100
AcDbLinetypeTableRecord
  2
BORDER2
 70
    0
  3
Border (.5x) __.__.__.__.__.__.__.__.__.__.__.
 72
   65
 73
    6
 40
22.225
 49
6.35
 74
    0
 49
-3.175
 74
    0
 49
6.35
 74
    0
 49
-3.175
 74
    0
 49
0
 74
    0
 49
-3.175
 74
    0
  0
LTYPE
  5
45
330
5
100
AcDbSymbolTableRecord
100
AcDbLinetypeTableRecord
  2
BORDERX2
 70
    0
  3
Border (2x) ____  ____  .  ____  ____  .  ___
 72
   65
 73
    6
 40
88.89999999999999
 49
25.4
 74
    0
 49
-12.7
 74
    0
 49
25.4
 74
    0
 49
-12.7
 74
    0
 49
0
 74
    0
 49
-12.7
 74
    0
  0
LTYPE
  5
46
330
5
100
AcDbSymbolTableRecord
100
AcDbLinetypeTableRecord
  2
CENTER
 70
    0
  3
Center ____ _ ____ _ ____ _ ____ _ ____ _ ____
 72
   65
 73
    4
 40
50.8
 49
31.75
 74
    0
 49
-6.35
 74
    0
 49
6.35
 74
    0
 49
-6.35
 74
    0
  0
LTYPE
  5
47
330
5
100
AcDbSymbolTableRecord
100
AcDbLinetypeTableRecord
  2
CENTERTINY
 70
    0
  3
Center (.15x) ___ _ ___ _ ___ _ ___ _ ___ _ ___
 72
   65
 73
    4
 40
7.619999999999999
 49
4.7625
 74
    0
 49
-0.9525
 74
    0
 49
0.9525
 74
    0
 49
-0.9525
 74
    0
  0
LTYPE
  5
48
330
5
100
AcDbSymbolTableRecord
100
AcDbLinetypeTableRecord
  2
CENTER2
 70
    0
  3
Center (.5x) ___ _ ___ _ ___ _ ___ _ ___ _ ___
 72
   65
 73
    4
 40
28.575
 49
19.05
 74
    0
 49
-3.175
 74
    0
 49
3.175
 74
    0
 49
-3.175
 74
    0
  0
LTYPE
  5
49
330
5
100
AcDbSymbolTableRecord
100
AcDbLinetypeTableRecord
  2
CENTERX2
 70
    0
  3
Center (2x) ________  __  ________  __  _____
 72
   65
 73
    4
 40
101.6
 49
63.5
 74
    0
 49
-12.7
 74
    0
 49
12.7
 74
    0
 49
-12.7
 74
    0
  0
ENDTAB
  0
TABLE
  2
LAYER
  5
2
330
0
100
AcDbSymbolTable
 70
    1
  0
LAYER
  5
10
330
2
100
AcDbSymbolTableRecord
100
AcDbLayerTableRecord
  2
0
 70
    0
 62
    7
  6
CONTINUOUS
370
    0
390
F
  0
LAYER
  5
4A
330
2
100
AcDbSymbolTableRecord
100
AcDbLayerTableRecord
  2
bottom
 70
    0
 62
    4
  6
CONTINUOUS
370
    0
390
F
  0
LAYER
  5
4B
330
2
100
AcDbSymbolTableRecord
100
AcDbLayerTableRecord
  2
length
 70
    0
 62
   96
420
32768
  6
CONTINUOUS
370
    0
390
F
  0
LAYER
  5
4C
330
2
100
AcDbSymbolTableRecord
100
AcDbLayerTableRecord
  2
middle
 70
    0
 62
  136
420
32896
  6
CONTINUOUS
370
    0
390
F
  0
LAYER
  5
4D
330
2
100
AcDbSymbolTableRecord
100
AcDbLayerTableRecord
  2
pipe
 70
    0
 62
    2
  6
CONTINUOUS
370
    0
390
F
  0
ENDTAB
  0
TABLE
  2
STYLE
  5
3
330
0
100
AcDbSymbolTable
 70
    3
  0
STYLE
  5
4E
330
2
100
AcDbSymbolTableRecord
100
AcDbTextStyleTableRecord
  2
Standard
 70
    0
 40
0
 41
1
 50
0
 71
    0
 42
1
  3
txt
  4

  0
ENDTAB
  0
TABLE
  2
VIEW
  5
6
330
0
100
AcDbSymbolTable
 70
    0
  0
ENDTAB
  0
TABLE
  2
UCS
  5
7
330
0
100
AcDbSymbolTable
 70
    0
  0
ENDTAB
  0
TABLE
  2
APPID
  5
9
330
0
100
AcDbSymbolTable
 70
    1
  0
APPID
  5
12
330
9
100
AcDbSymbolTableRecord
100
AcDbRegAppTableRecord
  2
ACAD
 70
    0
  0
APPID
  5
4F
330
9
100
AcDbSymbolTableRecord
100
AcDbRegAppTableRecord
  2
LibreCad
 70
    0
  0
ENDTAB
  0
TABLE
  2
DIMSTYLE
  5
A
330
0
100
AcDbSymbolTable
 70
    1
100
AcDbDimStyleTable
 71
    1
  0
DIMSTYLE
105
50
330
A
100
AcDbSymbolTableRecord
100
AcDbDimStyleTableRecord
  2
Standard
 70
    0
 40
1
 41
2.5
 42
0.625
 43
0.38
 44
1.25
 45
0
 46
0
 47
0
 48
0
 49
1
140
2.5
141
0.09
142
0
143
25.4
144
1
145
0
146
1
147
0.625
148
0
 71
    0
 72
    0
 73
    0
 74
    1
 75
    0
 76
    0
 77
    0
 78
    8
 79
    0
170
    0
171
    2
172
    0
173
    0
174
    0
175
    0
176
    0
177
    0
178
    0
179
    0
271
    2
272
    4
273
    2
274
    2
275
    0
276
    0
277
    2
278
   44
279
    0
280
    0
281
    0
282
    0
283
    1
284
    0
285
    0
286
    0
288
    0
289
    3
340
STANDARD
341

371
   -2
372
   -2
  0
ENDTAB
  0
TABLE
  2
BLOCK_RECORD
  5
1
330
0
100
AcDbSymbolTable
 70
    2
  0
BLOCK_RECORD
  5
1F
330
1
100
AcDbSymbolTableRecord
100
AcDbBlockTableRecord
  2
*Model_Space
 70
    0
280
    1
281
    0
  0
BLOCK_RECORD
  5
1E
330
1
100
AcDbSymbolTableRecord
100
AcDbBlockTableRecord
  2
*Paper_Space
 70
    0
280
    1
281
    0
  0
BLOCK_RECORD
  5
51
330
1
100
AcDbSymbolTableRecord
100
AcDbBlockTableRecord
  2
*D15
 70
    0
280
    1
281
    0
  0
BLOCK_RECORD
  5
54
330
1
100
AcDbSymbolTableRecord
100
AcDbBlockTableRecord
  2
*D5
 70
    0
280
    1
281
    0
  0
BLOCK_RECORD
  5
57
330
1
100
AcDbSymbolTableRecord
100
AcDbBlockTableRecord
  2
*D9
 70
    0
280
    1
281
    0
  0
BLOCK_RECORD
  5
5A
330
1
100
AcDbSymbolTableRecord
100
AcDbBlockTableRecord
  2
*D13
 70
    0
280
    1
281
    0
  0
BLOCK_RECORD
  5
5D
330
1
100
AcDbSymbolTableRecord
100
AcDbBlockTableRecord
  2
*D7
 70
    0
280
    1
281
    0
  0
BLOCK_RECORD
  5
60
330
1
100
AcDbSymbolTableRecord
100
AcDbBlockTableRecord
  2
*D12
 70
    0
280
    1
281
    0
  0
BLOCK_RECORD
  5
63
330
1
100
AcDbSymbolTableRecord
100
AcDbBlockTableRecord
  2
*D4
 70
    0
280
    1
281
    0
  0
BLOCK_RECORD
  5
66
330
1
100
AcDbSymbolTableRecord
100
AcDbBlockTableRecord
  2
*D14
 70
    0
280
    1
281
    0
  0
BLOCK_RECORD
  5
69
330
1
100
AcDbSymbolTableRecord
100
AcDbBlockTableRecord
  2
*D3
 70
    0
280
    1
281
    0
  0
BLOCK_RECORD
  5
6C
330
1
100
AcDbSymbolTableRecord
100
AcDbBlockTableRecord
  2
*D1
 70
    0
280
    1
281
    0
  0
BLOCK_RECORD
  5
6F
330
1
100
AcDbSymbolTableRecord
100
AcDbBlockTableRecord
  2
*D2
 70
    0
280
    1
281
    0
  0
BLOCK_RECORD
  5
72
330
1
100
AcDbSymbolTableRecord
100
AcDbBlockTableRecord
  2
*D8
 70
    0
280
    1
281
    0
  0
BLOCK_RECORD
  5
75
330
1
100
AcDbSymbolTableRecord
100
AcDbBlockTableRecord
  2
*D11
 70
    0
280
    1
281
    0
  0
BLOCK_RECORD
  5
78
330
1
100
AcDbSymbolTableRecord
100
AcDbBlockTableRecord
  2
*D10
 70
    0
280
    1
281
    0
  0
BLOCK_RECORD
  5
7B
330
1
100
AcDbSymbolTableRecord
100
AcDbBlockTableRecord
  2
*D6
 70
    0
280
    1
281
    0
  0
ENDTAB
  0
ENDSEC
  0
SECTION
  2
BLOCKS
  0
BLOCK
  5
20
330
1F
100
AcDbEntity
  8
0
100
AcDbBlockBegin
  2
*Model_Space
 70
    0
 10
0
 20
0
 30
0
  3
*Model_Space
  1

  0
ENDBLK
  5
21
330
1F
100
AcDbEntity
  8
0
100
AcDbBlockEnd
  0
BLOCK
  5
1C
330
1B
100
AcDbEntity
  8
0
100
AcDbBlockBegin
  2
*Paper_Space
 70
    0
 10
0
 20
0
 30
0
  3
*Paper_Space
  1

  0
ENDBLK
  5
1D
330
1F
100
AcDbEntity
  8
0
100
AcDbBlockEnd
  0
BLOCK
  5
52
330
51
100
AcDbEntity
  8
0
100
AcDbBlockBegin
  2
*D15
 70
    1
 10
0
 20
0
  3
*D15
  1

  0
LINE
  5
7E
100
AcDbEntity
  8
middle
  6
ByBlock
 62
    0
370
   -2
100
AcDbLine
 10
49.99999999999999
 20
565
 11
49.99999999999999
 21
585
  0
SOLID
  5
7F
100
AcDbEntity
  8
middle
  6
ByBlock
 62
    0
370
   -2
100
AcDbTrace
 10
49.99999999999999
 20
565
 30
0
 11
49.58371534222715
 21
567.5
 31
0
 12
50.41628465777283
 22
567.5
 32
0
 13
50.41628465777283
 23
567.5
 33
0
  0
SOLID
  5
80
100
AcDbEntity
  8
middle
  6
ByBlock
 62
    0
370
   -2
100
AcDbTrace
 10
49.99999999999999
 20
585
 30
0
 11
50.41628465777283
 21
582.5
 31
0
 12
49.58371534222715
 22
582.5
 32
0
 13
49.58371534222715
 23
582.5
 33
0
  0
MTEXT
  5
81
100
AcDbEntity
  8
middle
  6
CONTINUOUS
 62
    0
370
   -2
100
AcDbMText
 10
48.12499999999999
 20
575
 30
0
 40
2.5
 41
3.055555555555556
 71
    5
 72
    1
  1
20
  7
STANDARD
210
0
220
0
230
1
 50
90
 73
    2
 44
1
  0
LINE
  5
82
100
AcDbEntity
  8
middle
  6
ByBlock
 62
    0
370
   -2
100
AcDbLine
 10
10.625
 20
565
 11
51.24999999999999
 21
565
  0
LINE
  5
83
100
AcDbEntity
  8
middle
  6
ByBlock
 62
    0
370
   -2
100
AcDbLine
 10
7.624999999999981
 20
585
 11
51.24999999999999
 21
585
  0
ENDBLK
  5
53
330
51
100
AcDbEntity
  8
0
100
AcDbBlockEnd
  0
BLOCK
  5
55
330
54
100
AcDbEntity
  8
0
100
AcDbBlockBegin
  2
*D5
 70
    1
 10
0
 20
0
  3
*D5
  1

  0
LINE
  5
84
100
AcDbEntity
  8
bottom
  6
ByBlock
 62
    0
370
   -2
100
AcDbLine
 10
40
 20
168.1
 11
40
 21
178.1
  0
SOLID
  5
85
100
AcDbEntity
  8
bottom
  6
ByBlock
 62
    0
370
   -2
100
AcDbTrace
 10
40
 20
168.1
 30
0
 11
39.58371534222716
 21
170.6
 31
0
 12
40.41628465777284
 22
170.6
 32
0
 13
40.41628465777284
 23
170.6
 33
0
  0
SOLID
  5
86
100
AcDbEntity
  8
bottom
  6
ByBlock
 62
    0
370
   -2
100
AcDbTrace
 10
40
 20
178.1
 30
0
 11
40.41628465777284
 21
175.6
 31
0
 12
39.58371534222716
 22
175.6
 32
0
 13
39.58371534222716
 23
175.6
 33
0
  0
MTEXT
  5
87
100
AcDbEntity
  8
bottom
  6
CONTINUOUS
 62
    0
370
   -2
100
AcDbMText
 10
38.125
 20
173.1
 30
0
 40
2.5
 41
2.5
 71
    5
 72
    1
  1
10
  7
STANDARD
210
0
220
0
230
1
 50
90
 73
    2
 44
1
  0
LINE
  5
88
100
AcDbEntity
  8
bottom
  6
ByBlock
 62
    0
370
   -2
100
AcDbLine
 10
25.62499999999996
 20
168.1
 11
41.25
 21
168.1
  0
LINE
  5
89
100
AcDbEntity
  8
bottom
  6
ByBlock
 62
    0
370
   -2
100
AcDbLine
 10
25.62499999999996
 20
178.1
 11
41.25
 21
178.1
  0
ENDBLK
  5
56
330
54
100
AcDbEntity
  8
0
100
AcDbBlockEnd
  0
BLOCK
  5
58
330
57
100
AcDbEntity
  8
0
100
AcDbBlockBegin
  2
*D9
 70
    1
 10
0
 20
0
  3
*D9
  1

  0
LINE
  5
8A
100
AcDbEntity
  8
0
  6
ByBlock
 62
    0
370
   -2
100
AcDbLine
 10
29.99999999999996
 20
225
 11
19.99999999999996
 21
225
  0
SOLID
  5
8B
100
AcDbEntity
  8
0
  6
ByBlock
 62
    0
370
   -2
100
AcDbTrace
 10
24.99999999999996
 20
225
 30
0
 11
22.49999999999996
 21
224.5837153422272
 31
0
 12
22.49999999999996
 22
225.4162846577728
 32
0
 13
22.49999999999996
 23
225.4162846577728
 33
0
  0
SOLID
  5
8C
100
AcDbEntity
  8
0
  6
ByBlock
 62
    0
370
   -2
100
AcDbTrace
 10
24.99999999999996
 20
225
 30
0
 11
22.49999999999996
 21
224.5837153422272
 31
0
 12
22.49999999999996
 22
225.4162846577728
 32
0
 13
22.49999999999996
 23
225.4162846577728
 33
0
  0
MTEXT
  5
8D
100
AcDbEntity
  8
0
  6
CONTINUOUS
 62
    0
370
   -2
100
AcDbMText
 10
26.18055555555552
 20
226.875
 30
0
 40
2.5
 41
1.111111111111111
 71
    5
 72
    1
  1
0
  7
STANDARD
210
0
220
0
230
1
 50
360
 73
    2
 44
1
  0
LINE
  5
8E
100
AcDbEntity
  8
0
  6
ByBlock
 62
    0
370
   -2
100
AcDbLine
 10
15.625
 20
225
 11
26.24999999999996
 21
225
  0
LINE
  5
8F
100
AcDbEntity
  8
0
  6
ByBlock
 62
    0
370
   -2
100
AcDbLine
 10
15.625
 20
225
 11
26.24999999999996
 21
225
  0
ENDBLK
  5
59
330
57
100
AcDbEntity
  8
0
100
AcDbBlockEnd
  0
BLOCK
  5
5B
330
5A
100
AcDbEntity
  8
0
100
AcDbBlockBegin
  2
*D13
 70
    1
 10
0
 20
0
  3
*D13
  1

  0
LINE
  5
90
100
AcDbEntity
  8
middle
  6
ByBlock
 62
    0
370
   -2
100
AcDbLine
 10
-40
 20
534.05
 11
-40
 21
495
  0
SOLID
  5
91
100
AcDbEntity
  8
middle
  6
ByBlock
 62
    0
370
   -2
100
AcDbTrace
 10
-40
 20
534.05
 30
0
 11
-39.58371534222716
 21
531.55
 31
0
 12
-40.41628465777284
 22
531.55
 32
0
 13
-40.41628465777284
 23
531.55
 33
0
  0
SOLID
  5
92
100
AcDbEntity
  8
middle
  6
ByBlock
 62
    0
370
   -2
100
AcDbTrace
 10
-40
 20
495
 30
0
 11
-40.41628465777284
 21
497.5
 31
0
 12
-39.58371534222716
 22
497.5
 32
0
 13
-39.58371534222716
 23
497.5
 33
0
  0
MTEXT
  5
93
100
AcDbEntity
  8
middle
  6
CONTINUOUS
 62
    0
370
   -2
100
AcDbMText
 10
-41.875
 20
514.525
 30
0
 40
2.5
 41
7.916666666666977
 71
    5
 72
    1
  1
39,05
  7
STANDARD
210
0
220
0
230
1
 50
90
 73
    2
 44
1
  0
LINE
  5
94
100
AcDbEntity
  8
middle
  6
ByBlock
 62
    0
370
   -2
100
AcDbLine
 10
-30.62500000000002
 20
534.05
 11
-41.25
 21
534.05
  0
LINE
  5
95
100
AcDbEntity
  8
middle
  6
ByBlock
 62
    0
370
   -2
100
AcDbLine
 10
-7.625000000000001
 20
495
 11
-41.25
 21
495
  0
ENDBLK
  5
5C
330
5A
100
AcDbEntity
  8
0
100
AcDbBlockEnd
  0
BLOCK
  5
5E
330
5D
100
AcDbEntity
  8
0
100
AcDbBlockBegin
  2
*D7
 70
    1
 10
0
 20
0
  3
*D7
  1

  0
LINE
  5
96
100
AcDbEntity
  8
bottom
  6
ByBlock
 62
    0
370
   -2
100
AcDbLine
 10
40
 20
245
 11
40
 21
225
  0
SOLID
  5
97
100
AcDbEntity
  8
bottom
  6
ByBlock
 62
    0
370
   -2
100
AcDbTrace
 10
40
 20
245
 30
0
 11
40.41628465777284
 21
242.5
 31
0
 12
39.58371534222716
 22
242.5
 32
0
 13
39.58371534222716
 23
242.5
 33
0
  0
SOLID
  5
98
100
AcDbEntity
  8
bottom
  6
ByBlock
 62
    0
370
   -2
100
AcDbTrace
 10
40
 20
225
 30
0
 11
39.58371534222716
 21
227.5
 31
0
 12
40.41628465777284
 22
227.5
 32
0
 13
40.41628465777284
 23
227.5
 33
0
  0
MTEXT
  5
99
100
AcDbEntity
  8
bottom
  6
CONTINUOUS
 62
    0
370
   -2
100
AcDbMText
 10
38.125
 20
235
 30
0
 40
2.5
 41
3.055555555555556
 71
    5
 72
    1
  1
20
  7
STANDARD
210
0
220
0
230
1
 50
90
 73
    2
 44
1
  0
LINE
  5
9A
100
AcDbEntity
  8
bottom
  6
ByBlock
 62
    0
370
   -2
100
AcDbLine
 10
7.625000000000001
 20
245
 11
41.25
 21
245
  0
LINE
  5
9B
100
AcDbEntity
  8
bottom
  6
ByBlock
 62
    0
370
   -2
100
AcDbLine
 10
7.625
 20
225
 11
41.25
 21
225
  0
ENDBLK
  5
5F
330
5D
100
AcDbEntity
  8
0
100
AcDbBlockEnd
  0
BLOCK
  5
61
330
60
100
AcDbEntity
  8
0
100
AcDbBlockBegin
  2
*D12
 70
    1
 10
0
 20
0
  3
*D12
  1

  0
LINE
  5
9C
100
AcDbEntity
  8
middle
  6
ByBlock
 62
    0
370
   -2
100
AcDbLine
 10
-59.99999999999999
 20
551.95
 11
-60
 21
495
  0
SOLID
  5
9D
100
AcDbEntity
  8
middle
  6
ByBlock
 62
    0
370
   -2
100
AcDbTrace
 10
-59.99999999999999
 20
551.95
 30
0
 11
-59.58371534222715
 21
549.45
 31
0
 12
-60.41628465777283
 22
549.45
 32
0
 13
-60.41628465777283
 23
549.45
 33
0
  0
SOLID
  5
9E
100
AcDbEntity
  8
middle
  6
ByBlock
 62
    0
370
   -2
100
AcDbTrace
 10
-60
 20
495
 30
0
 11
-60.41628465777284
 21
497.5
 31
0
 12
-59.58371534222716
 22
497.5
 32
0
 13
-59.58371534222716
 23
497.5
 33
0
  0
MTEXT
  5
9F
100
AcDbEntity
  8
middle
  6
CONTINUOUS
 62
    0
370
   -2
100
AcDbMText
 10
-61.875
 20
523.475
 30
0
 40
2.5
 41
7.916666666667132
 71
    5
 72
    1
  1
56,95
  7
STANDARD
210
0
220
0
230
1
 50
90
 73
    2
 44
1
  0
LINE
  5
A0
100
AcDbEntity
  8
middle
  6
ByBlock
 62
    0
370
   -2
100
AcDbLine
 10
-0.625000000000021
 20
551.95
 11
-61.24999999999999
 21
551.95
  0
LINE
  5
A1
100
AcDbEntity
  8
middle
  6
ByBlock
 62
    0
370
   -2
100
AcDbLine
 10
6.374999999999999
 20
495
 11
-61.25
 21
495
  0
ENDBLK
  5
62
330
60
100
AcDbEntity
  8
0
100
AcDbBlockEnd
  0
BLOCK
  5
64
330
63
100
AcDbEntity
  8
0
100
AcDbBlockBegin
  2
*D4
 70
    1
 10
0
 20
0
  3
*D4
  1

  0
LINE
  5
A2
100
AcDbEntity
  8
pipe
  6
ByBlock
 62
    0
370
   -2
100
AcDbLine
 10
100
 20
515
 11
100
 21
225
  0
SOLID
  5
A3
100
AcDbEntity
  8
pipe
  6
ByBlock
 62
    0
370
   -2
100
AcDbTrace
 10
100
 20
515
 30
0
 11
100.4162846577728
 21
512.5
 31
0
 12
99.58371534222717
 22
512.5
 32
0
 13
99.58371534222717
 23
512.5
 33
0
  0
SOLID
  5
A4
100
AcDbEntity
  8
pipe
  6
ByBlock
 62
    0
370
   -2
100
AcDbTrace
 10
100
 20
225
 30
0
 11
99.58371534222717
 21
227.5
 31
0
 12
100.4162846577728
 22
227.5
 32
0
 13
100.4162846577728
 23
227.5
 33
0
  0
MTEXT
  5
A5
100
AcDbEntity
  8
pipe
  6
CONTINUOUS
 62
    0
370
   -2
100
AcDbMText
 10
98.125
 20
370
 30
0
 40
2.5
 41
5
 71
    5
 72
    1
  1
290
  7
STANDARD
210
0
220
0
230
1
 50
90
 73
    2
 44
1
  0
LINE
  5
A6
100
AcDbEntity
  8
pipe
  6
ByBlock
 62
    0
370
   -2
100
AcDbLine
 10
7.625
 20
515
 11
101.25
 21
515
  0
LINE
  5
A7
100
AcDbEntity
  8
pipe
  6
ByBlock
 62
    0
370
   -2
100
AcDbLine
 10
7.625
 20
225
 11
101.25
 21
225
  0
ENDBLK
  5
65
330
63
100
AcDbEntity
  8
0
100
AcDbBlockEnd
  0
BLOCK
  5
67
330
66
100
AcDbEntity
  8
0
100
AcDbBlockBegin
  2
*D14
 70
    1
 10
0
 20
0
  3
*D14
  1

  0
LINE
  5
A8
100
AcDbEntity
  8
middle
  6
ByBlock
 62
    0
370
   -2
100
AcDbLine
 10
40
 20
541.05
 11
40
 21
527.05
  0
SOLID
  5
A9
100
AcDbEntity
  8
middle
  6
ByBlock
 62
    0
370
   -2
100
AcDbTrace
 10
40
 20
541.05
 30
0
 11
40.41628465777284
 21
538.55
 31
0
 12
39.58371534222716
 22
538.55
 32
0
 13
39.58371534222716
 23
538.55
 33
0
  0
SOLID
  5
AA
100
AcDbEntity
  8
middle
  6
ByBlock
 62
    0
370
   -2
100
AcDbTrace
 10
40
 20
527.05
 30
0
 11
39.58371534222716
 21
529.55
 31
0
 12
40.41628465777284
 22
529.55
 32
0
 13
40.41628465777284
 23
529.55
 33
0
  0
MTEXT
  5
AB
100
AcDbEntity
  8
middle
  6
CONTINUOUS
 62
    0
370
   -2
100
AcDbMText
 10
38.125
 20
534.05
 30
0
 40
2.5
 41
2.777777777777778
 71
    5
 72
    1
  1
14
  7
STANDARD
210
0
220
0
230
1
 50
90
 73
    2
 44
1
  0
LINE
  5
AC
100
AcDbEntity
  8
middle
  6
ByBlock
 62
    0
370
   -2
100
AcDbLine
 10
30.62499999999998
 20
541.05
 11
41.25
 21
541.05
  0
LINE
  5
AD
100
AcDbEntity
  8
middle
  6
ByBlock
 62
    0
370
   -2
100
AcDbLine
 10
30.62499999999998
 20
527.05
 11
41.25
 21
527.05
  0
ENDBLK
  5
68
330
66
100
AcDbEntity
  8
0
100
AcDbBlockEnd
  0
BLOCK
  5
6A
330
69
100
AcDbEntity
  8
0
100
AcDbBlockBegin
  2
*D3
 70
    1
 10
0
 20
0
  3
*D3
  1

  0
LINE
  5
AE
100
AcDbEntity
  8
pipe
  6
ByBlock
 62
    0
370
   -2
100
AcDbLine
 10
100
 20
885
 11
100
 21
565
  0
SOLID
  5
AF
100
AcDbEntity
  8
pipe
  6
ByBlock
 62
    0
370
   -2
100
AcDbTrace
 10
100
 20
885
 30
0
 11
100.4162846577728
 21
882.5
 31
0
 12
99.58371534222717
 22
882.5
 32
0
 13
99.58371534222717
 23
882.5
 33
0
  0
SOLID
  5
B0
100
AcDbEntity
  8
pipe
  6
ByBlock
 62
    0
370
   -2
100
AcDbTrace
 10
100
 20
565
 30
0
 11
99.58371534222717
 21
567.5
 31
0
 12
100.4162846577728
 22
567.5
 32
0
 13
100.4162846577728
 23
567.5
 33
0
  0
MTEXT
  5
B1
100
AcDbEntity
  8
pipe
  6
CONTINUOUS
 62
    0
370
   -2
100
AcDbMText
 10
98.12500000000001
 20
725
 30
0
 40
2.5
 41
5.000000000000155
 71
    5
 72
    1
  1
320
  7
STANDARD
210
0
220
0
230
1
 50
90
 73
    2
 44
1
  0
LINE
  5
B2
100
AcDbEntity
  8
pipe
  6
ByBlock
 62
    0
370
   -2
100
AcDbLine
 10
7.625
 20
885
 11
101.25
 21
885
  0
LINE
  5
B3
100
AcDbEntity
  8
pipe
  6
ByBlock
 62
    0
370
   -2
100
AcDbLine
 10
7.62499999999998
 20
565
 11
101.25
 21
565
  0
ENDBLK
  5
6B
330
69
100
AcDbEntity
  8
0
100
AcDbBlockEnd
  0
BLOCK
  5
6D
330
6C
100
AcDbEntity
  8
0
100
AcDbBlockBegin
  2
*D1
 70
    1
 10
0
 20
0
  3
*D1
  1

  0
LINE
  5
B4
100
AcDbEntity
  8
length
  6
ByBlock
 62
    0
370
   -2
100
AcDbLine
 10
-100
 20
895
 11
-100
 21
173.1
  0
SOLID
  5
B5
100
AcDbEntity
  8
length
  6
ByBlock
 62
    0
370
   -2
100
AcDbTrace
 10
-100
 20
895
 30
0
 11
-99.58371534222717
 21
892.5
 31
0
 12
-100.4162846577728
 22
892.5
 32
0
 13
-100.4162846577728
 23
892.5
 33
0
  0
SOLID
  5
B6
100
AcDbEntity
  8
length
  6
ByBlock
 62
    0
370
   -2
100
AcDbTrace
 10
-100
 20
173.1
 30
0
 11
-100.4162846577728
 21
175.6
 31
0
 12
-99.58371534222717
 22
175.6
 32
0
 13
-99.58371534222717
 23
175.6
 33
0
  0
MTEXT
  5
B7
100
AcDbEntity
  8
length
  6
CONTINUOUS
 62
    0
370
   -2
100
AcDbMText
 10
-101.875
 20
534.0500000000001
 30
0
 40
2.5
 41
7.361111111111112
 71
    5
 72
    1
  1
721,9
  7
STANDARD
210
0
220
0
230
1
 50
90
 73
    2
 44
1
  0
LINE
  5
B8
100
AcDbEntity
  8
length
  6
ByBlock
 62
    0
370
   -2
100
AcDbLine
 10
-25.625
 20
895
 11
-101.25
 21
895
  0
LINE
  5
B9
100
AcDbEntity
  8
length
  6
ByBlock
 62
    0
370
   -2
100
AcDbLine
 10
-25.62500000000004
 20
173.1
 11
-101.25
 21
173.1
  0
ENDBLK
  5
6E
330
6C
100
AcDbEntity
  8
0
100
AcDbBlockEnd
  0
BLOCK
  5
70
330
6F
100
AcDbEntity
  8
0
100
AcDbBlockBegin
  2
*D2
 70
    1
 10
0
 20
0
  3
*D2
  1

  0
LINE
  5
BA
100
AcDbEntity
  8
length
  6
ByBlock
 62
    0
370
   -2
100
AcDbLine
 10
-80
 20
208.9
 11
-80
 21
895
  0
SOLID
  5
BB
100
AcDbEntity
  8
length
  6
ByBlock
 62
    0
370
   -2
100
AcDbTrace
 10
-80
 20
208.9
 30
0
 11
-80.41628465777283
 21
211.4
 31
0
 12
-79.58371534222717
 22
211.4
 32
0
 13
-79.58371534222717
 23
211.4
 33
0
  0
SOLID
  5
BC
100
AcDbEntity
  8
length
  6
ByBlock
 62
    0
370
   -2
100
AcDbTrace
 10
-80
 20
895
 30
0
 11
-79.58371534222717
 21
892.5
 31
0
 12
-80.41628465777283
 22
892.5
 32
0
 13
-80.41628465777283
 23
892.5
 33
0
  0
MTEXT
  5
BD
100
AcDbEntity
  8
length
  6
CONTINUOUS
 62
    0
370
   -2
100
AcDbMText
 10
-81.875
 20
551.95
 30
0
 40
2.5
 41
7.361111111111422
 71
    5
 72
    1
  1
686,1
  7
STANDARD
210
0
220
0
230
1
 50
90
 73
    2
 44
1
  0
LINE
  5
BE
100
AcDbEntity
  8
length
  6
ByBlock
 62
    0
370
   -2
100
AcDbLine
 10
-0.625000000000042
 20
208.9
 11
-81.25
 21
208.9
  0
LINE
  5
BF
100
AcDbEntity
  8
length
  6
ByBlock
 62
    0
370
   -2
100
AcDbLine
 10
-0.625
 20
895
 11
-81.25
 21
895
  0
ENDBLK
  5
71
330
6F
100
AcDbEntity
  8
0
100
AcDbBlockEnd
  0
BLOCK
  5
73
330
72
100
AcDbEntity
  8
0
100
AcDbBlockBegin
  2
*D8
 70
    1
 10
0
 20
0
  3
*D8
  1

  0
LINE
  5
C0
100
AcDbEntity
  8
bottom
  6
ByBlock
 62
    0
370
   -2
100
AcDbLine
 10
30
 20
208.9
 11
30
 21
178.1
  0
SOLID
  5
C1
100
AcDbEntity
  8
bottom
  6
ByBlock
 62
    0
370
   -2
100
AcDbTrace
 10
30
 20
208.9
 30
0
 11
30.41628465777285
 21
206.4
 31
0
 12
29.58371534222716
 22
206.4
 32
0
 13
29.58371534222716
 23
206.4
 33
0
  0
SOLID
  5
C2
100
AcDbEntity
  8
bottom
  6
ByBlock
 62
    0
370
   -2
100
AcDbTrace
 10
30
 20
178.1
 30
0
 11
29.58371534222716
 21
180.6
 31
0
 12
30.41628465777284
 22
180.6
 32
0
 13
30.41628465777284
 23
180.6
 33
0
  0
MTEXT
  5
C3
100
AcDbEntity
  8
bottom
  6
CONTINUOUS
 62
    0
370
   -2
100
AcDbMText
 10
28.125
 20
193.5
 30
0
 40
2.5
 41
5.972222222222378
 71
    5
 72
    1
  1
30,8
  7
STANDARD
210
0
220
0
230
1
 50
90
 73
    2
 44
1
  0
LINE
  5
C4
100
AcDbEntity
  8
bottom
  6
ByBlock
 62
    0
370
   -2
100
AcDbLine
 10
0.624999999999958
 20
208.9
 11
31.25
 21
208.9
  0
LINE
  5
C5
100
AcDbEntity
  8
bottom
  6
ByBlock
 62
    0
370
   -2
100
AcDbLine
 10
15.62499999999996
 20
178.1
 11
31.25
 21
178.1
  0
ENDBLK
  5
74
330
72
100
AcDbEntity
  8
0
100
AcDbBlockEnd
  0
BLOCK
  5
76
330
75
100
AcDbEntity
  8
0
100
AcDbBlockBegin
  2
*D11
 70
    1
 10
0
 20
0
  3
*D11
  1

  0
LINE
  5
C6
100
AcDbEntity
  8
middle
  6
ByBlock
 62
    0
370
   -2
100
AcDbLine
 10
50
 20
515
 11
50
 21
565
  0
SOLID
  5
C7
100
AcDbEntity
  8
middle
  6
ByBlock
 62
    0
370
   -2
100
AcDbTrace
 10
50
 20
515
 30
0
 11
49.58371534222716
 21
517.5
 31
0
 12
50.41628465777284
 22
517.5
 32
0
 13
50.41628465777284
 23
517.5
 33
0
  0
SOLID
  5
C8
100
AcDbEntity
  8
middle
  6
ByBlock
 62
    0
370
   -2
100
AcDbTrace
 10
50
 20
565
 30
0
 11
50.41628465777284
 21
562.5
 31
0
 12
49.58371534222716
 22
562.5
 32
0
 13
49.58371534222716
 23
562.5
 33
0
  0
MTEXT
  5
C9
100
AcDbEntity
  8
middle
  6
CONTINUOUS
 62
    0
370
   -2
100
AcDbMText
 10
48.125
 20
540
 30
0
 40
2.5
 41
3.055555555555711
 71
    5
 72
    1
  1
50
  7
STANDARD
210
0
220
0
230
1
 50
90
 73
    2
 44
1
  0
LINE
  5
CA
100
AcDbEntity
  8
middle
  6
ByBlock
 62
    0
370
   -2
100
AcDbLine
 10
10.625
 20
515
 11
51.25
 21
515
  0
LINE
  5
CB
100
AcDbEntity
  8
middle
  6
ByBlock
 62
    0
370
   -2
100
AcDbLine
 10
10.625
 20
565
 11
51.25
 21
565
  0
ENDBLK
  5
77
330
75
100
AcDbEntity
  8
0
100
AcDbBlockEnd
  0
BLOCK
  5
79
330
78
100
AcDbEntity
  8
0
100
AcDbBlockBegin
  2
*D10
 70
    1
 10
0
 20
0
  3
*D10
  1

  0
LINE
  5
CC
100
AcDbEntity
  8
middle
  6
ByBlock
 62
    0
370
   -2
100
AcDbLine
 10
50
 20
495
 11
50
 21
515
  0
SOLID
  5
CD
100
AcDbEntity
  8
middle
  6
ByBlock
 62
    0
370
   -2
100
AcDbTrace
 10
50
 20
495
 30
0
 11
49.58371534222716
 21
497.5
 31
0
 12
50.41628465777284
 22
497.5
 32
0
 13
50.41628465777284
 23
497.5
 33
0
  0
SOLID
  5
CE
100
AcDbEntity
  8
middle
  6
ByBlock
 62
    0
370
   -2
100
AcDbTrace
 10
50
 20
515
 30
0
 11
50.41628465777284
 21
512.5
 31
0
 12
49.58371534222716
 22
512.5
 32
0
 13
49.58371534222716
 23
512.5
 33
0
  0
MTEXT
  5
CF
100
AcDbEntity
  8
middle
  6
CONTINUOUS
 62
    0
370
   -2
100
AcDbMText
 10
48.125
 20
505
 30
0
 40
2.5
 41
3.055555555555556
 71
    5
 72
    1
  1
20
  7
STANDARD
210
0
220
0
230
1
 50
90
 73
    2
 44
1
  0
LINE
  5
D0
100
AcDbEntity
  8
middle
  6
ByBlock
 62
    0
370
   -2
100
AcDbLine
 10
7.624999999999999
 20
495
 11
51.25
 21
495
  0
LINE
  5
D1
100
AcDbEntity
  8
middle
  6
ByBlock
 62
    0
370
   -2
100
AcDbLine
 10
10.625
 20
515
 11
51.25
 21
515
  0
ENDBLK
  5
7A
330
78
100
AcDbEntity
  8
0
100
AcDbBlockEnd
  0
BLOCK
  5
7C
330
7B
100
AcDbEntity
  8
0
100
AcDbBlockBegin
  2
*D6
 70
    1
 10
0
 20
0
  3
*D6
  1

  0
LINE
  5
D2
100
AcDbEntity
  8
bottom
  6
ByBlock
 62
    0
370
   -2
100
AcDbLine
 10
60
 20
178.1
 11
60
 21
225
  0
SOLID
  5
D3
100
AcDbEntity
  8
bottom
  6
ByBlock
 62
    0
370
   -2
100
AcDbTrace
 10
60
 20
178.1
 30
0
 11
59.58371534222716
 21
180.6
 31
0
 12
60.41628465777284
 22
180.6
 32
0
 13
60.41628465777284
 23
180.6
 33
0
  0
SOLID
  5
D4
100
AcDbEntity
  8
bottom
  6
ByBlock
 62
    0
370
   -2
100
AcDbTrace
 10
60
 20
225
 30
0
 11
60.41628465777284
 21
222.5
 31
0
 12
59.58371534222716
 22
222.5
 32
0
 13
59.58371534222716
 23
222.5
 33
0
  0
MTEXT
  5
D5
100
AcDbEntity
  8
bottom
  6
CONTINUOUS
 62
    0
370
   -2
100
AcDbMText
 10
58.125
 20
201.55
 30
0
 40
2.5
 41
6.250000000000156
 71
    5
 72
    1
  1
46,9
  7
STANDARD
210
0
220
0
230
1
 50
90
 73
    2
 44
1
  0
LINE
  5
D6
100
AcDbEntity
  8
bottom
  6
ByBlock
 62
    0
370
   -2
100
AcDbLine
 10
15.62499999999996
 20
178.1
 11
61.25
 21
178.1
  0
LINE
  5
D7
100
AcDbEntity
  8
bottom
  6
ByBlock
 62
    0
370
   -2
100
AcDbLine
 10
15.625
 20
225
 11
61.25
 21
225
  0
ENDBLK
  5
7D
330
7B
100
AcDbEntity
  8
0
100
AcDbBlockEnd
  0
ENDSEC
  0
SECTION
  2
ENTITIES
  0
LINE
  5
D8
100
AcDbEntity
  8
0
  6
ByLayer
 62
  256
370
   -1
100
AcDbLine
 10
-15
 20
900
 11
15
 21
900
  0
LINE
  5
D9
100
AcDbEntity
  8
0
  6
ByLayer
 62
  256
370
   -1
100
AcDbLine
 10
-15
 20
900
 11
-25
 21
900
  0
LINE
  5
DA
100
AcDbEntity
  8
0
  6
ByLayer
 62
  256
370
   -1
100
AcDbLine
 10
15
 20
900
 11
25
 21
900
  0
LINE
  5
DB
100
AcDbEntity
  8
0
  6
ByLayer
 62
  256
370
   -1
100
AcDbLine
 10
-25
 20
900
 11
-25
 21
890
  0
LINE
  5
DC
100
AcDbEntity
  8
0
  6
ByLayer
 62
  256
370
   -1
100
AcDbLine
 10
25
 20
900
 11
25
 21
890
  0
LINE
  5
DD
100
AcDbEntity
  8
0
  6
ByLayer
 62
  256
370
   -1
100
AcDbLine
 10
25
 20
890
 11
15
 21
890
  0
LINE
  5
DE
100
AcDbEntity
  8
0
  6
ByLayer
 62
  256
370
   -1
100
AcDbLine
 10
-25
 20
890
 11
-15
 21
890
  0
LINE
  5
DF
100
AcDbEntity
  8
0
  6
ByLayer
 62
  256
370
   -1
100
AcDbLine
 10
-15
 20
890
 11
-15
 21
885
  0
LINE
  5
E0
100
AcDbEntity
  8
0
  6
ByLayer
 62
  256
370
   -1
100
AcDbLine
 10
15
 20
890
 11
15
 21
885
  0
CIRCLE
  5
E1
100
AcDbEntity
  8
0
  6
ByLayer
 62
  256
370
   -1
100
AcDbCircle
 10
0
 20
895
 40
5
  0
LINE
  5
E2
100
AcDbEntity
  8
0
  6
ByLayer
 62
  256
370
   -1
100
AcDbLine
 10
-7
 20
885
 11
-7.000000000000001
 21
865
  0
LINE
  5
E3
100
AcDbEntity
  8
0
  6
ByLayer
 62
  256
370
   -1
100
AcDbLine
 10
7
 20
885
 11
6.999999999999999
 21
865
  0
LINE
  5
E4
100
AcDbEntity
  8
0
  6
ByLayer
 62
  256
370
   -1
100
AcDbLine
 10
-15
 20
885
 11
-7
 21
885
  0
LINE
  5
E5
100
AcDbEntity
  8
0
  6
ByLayer
 62
  256
370
   -1
100
AcDbLine
 10
7
 20
885
 11
15
 21
885
  0
LINE
  5
E6
100
AcDbEntity
  8
0
  6
ByLayer
 62
  256
370
   -1
100
AcDbLine
 10
-7.000000000000001
 20
865
 11
6.999999999999999
 21
865
  0
LINE
  5
E7
100
AcDbEntity
  8
length
  6
ByLayer
 62
  256
370
   -1
100
AcDbLine
 10
0
 20
895
 11
-2.210181310761185e-14
 21
534.05
  0
LINE
  5
E8
100
AcDbEntity
  8
length
  6
ByLayer
 62
  256
370
   -1
100
AcDbLine
 10
-25
 20
895
 11
25
 21
895
  0
LINE
  5
E9
100
AcDbEntity
  8
length
  6
ByLayer
 62
  256
370
   -1
100
AcDbLine
 10
0
 20
895
 11
-2.100575422237498e-14
 21
551.95
  0
LINE
  5
EA
100
AcDbEntity
  8
pipe
  6
ByLayer
 62
  256
370
   -1
100
AcDbLine
 10
-7
 20
885
 11
-7.00000000000002
 21
565
  0
LINE
  5
EB
100
AcDbEntity
  8
pipe
  6
ByLayer
 62
  256
370
   -1
100
AcDbLine
 10
7
 20
885
 11
6.99999999999998
 21
565
  0
LINE
  5
EC
100
AcDbEntity
  8
0
  6
ByLayer
 62
  256
370
   -1
100
AcDbLine
 10
-10
 20
565
 11
-10.00000000000002
 21
541.05
  0
LINE
  5
ED
100
AcDbEntity
  8
0
  6
ByLayer
 62
  256
370
   -1
100
AcDbLine
 10
10
 20
565
 11
9.999999999999979
 21
541.05
  0
CIRCLE
  5
EE
100
AcDbEntity
  8
0
  6
ByLayer
 62
  256
370
   -1
100
AcDbCircle
 10
-2.100575422237498e-14
 20
551.95
 40
7
  0
LINE
  5
EF
100
AcDbEntity
  8
0
  6
ByLayer
 62
  256
370
   -1
100
AcDbLine
 10
-7.00000000000002
 20
565
 11
-7.000000000000019
 21
585
  0
LINE
  5
F0
100
AcDbEntity
  8
0
  6
ByLayer
 62
  256
370
   -1
100
AcDbLine
 10
6.99999999999998
 20
565
 11
6.999999999999981
 21
585
  0
LINE
  5
F1
100
AcDbEntity
  8
0
  6
ByLayer
 62
  256
370
   -1
100
AcDbLine
 10
-7.000000000000019
 20
585
 11
6.999999999999981
 21
585
  0
LINE
  5
F2
100
AcDbEntity
  8
0
  6
ByLayer
 62
  256
370
   -1
100
AcDbLine
 10
-10
 20
565
 11
-7.00000000000002
 21
565
  0
LINE
  5
F3
100
AcDbEntity
  8
0
  6
ByLayer
 62
  256
370
   -1
100
AcDbLine
 10
10
 20
565
 11
6.99999999999998
 21
565
  0
LINE
  5
F4
100
AcDbEntity
  8
length
  6
ByLayer
 62
  256
370
   -1
100
AcDbLine
 10
-30.00000000000002
 20
534.05
 11
29.99999999999998
 21
534.05
  0
LINE
  5
F5
100
AcDbEntity
  8
0
  6
ByLayer
 62
  256
370
   -1
100
AcDbLine
 10
-30.00000000000002
 20
527.05
 11
-30.00000000000002
 21
541.05
  0
LINE
  5
F6
100
AcDbEntity
  8
0
  6
ByLayer
 62
  256
370
   -1
100
AcDbLine
 10
29.99999999999998
 20
527.05
 11
29.99999999999998
 21
541.05
  0
LINE
  5
F7
100
AcDbEntity
  8
0
  6
ByLayer
 62
  256
370
   -1
100
AcDbLine
 10
-30.00000000000002
 20
541.05
 11
-10.00000000000002
 21
541.05
  0
LINE
  5
F8
100
AcDbEntity
  8
0
  6
ByLayer
 62
  256
370
   -1
100
AcDbLine
 10
9.999999999999979
 20
541.05
 11
29.99999999999998
 21
541.05
  0
LINE
  5
F9
100
AcDbEntity
  8
0
  6
ByLayer
 62
  256
370
   -1
100
AcDbLine
 10
-30.00000000000002
 20
527.05
 11
-10.00000000000002
 21
527.05
  0
LINE
  5
FA
100
AcDbEntity
  8
0
  6
ByLayer
 62
  256
370
   -1
100
AcDbLine
 10
29.99999999999998
 20
527.05
 11
9.999999999999979
 21
527.05
  0
LINE
  5
FB
100
AcDbEntity
  8
0
  6
ByLayer
 62
  256
370
   -1
100
AcDbLine
 10
-10.00000000000002
 20
527.05
 11
-10
 21
515
  0
LINE
  5
FC
100
AcDbEntity
  8
0
  6
ByLayer
 62
  256
370
   -1
100
AcDbLine
 10
10
 20
527
 11
10
 21
515
  0
LINE
  5
FD
100
AcDbEntity
  8
0
  6
ByLayer
 62
  256
370
   -1
100
AcDbLine
 10
10
 20
515
 11
7
 21
515
  0
LINE
  5
FE
100
AcDbEntity
  8
0
  6
ByLayer
 62
  256
370
   -1
100
AcDbLine
 10
-10
 20
515
 11
-7
 21
515
  0
LINE
  5
FF
100
AcDbEntity
  8
0
  6
ByLayer
 62
  256
370
   -1
100
AcDbLine
 10
-7
 20
515
 11
-7.000000000000001
 21
495
  0
LINE
  5
100
100
AcDbEntity
  8
0
  6
ByLayer
 62
  256
370
   -1
100
AcDbLine
 10
7
 20
515
 11
6.999999999999999
 21
495
  0
LINE
  5
101
100
AcDbEntity
  8
0
  6
ByLayer
 62
  256
370
   -1
100
AcDbLine
 10
-7.000000000000001
 20
495
 11
6.999999999999999
 21
495
  0
LINE
  5
102
100
AcDbEntity
  8
length
  6
ByLayer
 62
  256
370
   -1
100
AcDbLine
 10
-2.210181310761185e-14
 20
534.05
 11
-4.420362621522371e-14
 21
173.1
  0
LINE
  5
103
100
AcDbEntity
  8
length
  6
ByLayer
 62
  256
370
   -1
100
AcDbLine
 10
-25.00000000000004
 20
173.1
 11
24.99999999999996
 21
173.1
  0
LINE
  5
104
100
AcDbEntity
  8
0
  6
ByLayer
 62
  256
370
   -1
100
AcDbLine
 10
-25.00000000000004
 20
168.1
 11
-25.00000000000004
 21
178.1
  0
LINE
  5
105
100
AcDbEntity
  8
0
  6
ByLayer
 62
  256
370
   -1
100
AcDbLine
 10
24.99999999999996
 20
168.1
 11
24.99999999999996
 21
178.1
  0
LINE
  5
106
100
AcDbEntity
  8
0
  6
ByLayer
 62
  256
370
   -1
100
AcDbLine
 10
24.99999999999996
 20
178.1
 11
14.99999999999996
 21
178.1
  0
LINE
  5
107
100
AcDbEntity
  8
0
  6
ByLayer
 62
  256
370
   -1
100
AcDbLine
 10
-25.00000000000004
 20
178.1
 11
-15.00000000000004
 21
178.1
  0
LINE
  5
108
100
AcDbEntity
  8
0
  6
ByLayer
 62
  256
370
   -1
100
AcDbLine
 10
-25.00000000000004
 20
168.1
 11
24.99999999999996
 21
168.1
  0
DIMENSION
  5
109
100
AcDbEntity
  8
length
  6
ByLayer
 62
  256
370
   -1
100
AcDbDimension
  2
*D1
 10
-100
 20
173.1
 30
0
 11
-101.875
 21
534.0500000000001
 31
0
 70
   32
 71
    5
 72
    0
  3
Standard
 53
0
210
0
220
0
230
1
100
AcDbAlignedDimension
 13
-25
 23
895
 33
0
 14
-25.00000000000004
 24
173.1
 34
0
 50
90
100
AcDbRotatedDimension
  0
LINE
  5
10A
100
AcDbEntity
  8
length
  6
ByLayer
 62
  256
370
   -1
100
AcDbLine
 10
-2.100575422237498e-14
 20
551.95
 11
-4.201150844474995e-14
 21
208.9
  0
CIRCLE
  5
10B
100
AcDbEntity
  8
0
  6
ByLayer
 62
  256
370
   -1
100
AcDbCircle
 10
-4.201150844474995e-14
 20
208.9
 40
5
  0
LINE
  5
10C
100
AcDbEntity
  8
0
  6
ByLayer
 62
  256
370
   -1
100
AcDbLine
 10
-15.00000000000004
 20
178.1
 11
-15
 21
225
  0
LINE
  5
10D
100
AcDbEntity
  8
0
  6
ByLayer
 62
  256
370
   -1
100
AcDbLine
 10
-15
 20
225
 11
-7
 21
225
  0
LINE
  5
10E
100
AcDbEntity
  8
0
  6
ByLayer
 62
  256
370
   -1
100
AcDbLine
 10
15
 20
225
 11
7
 21
225
  0
LINE
  5
10F
100
AcDbEntity
  8
0
  6
ByLayer
 62
  256
370
   -1
100
AcDbLine
 10
7
 20
225
 11
7.000000000000001
 21
245
  0
LINE
  5
110
100
AcDbEntity
  8
0
  6
ByLayer
 62
  256
370
   -1
100
AcDbLine
 10
-7
 20
225
 11
-6.999999999999999
 21
245
  0
LINE
  5
111
100
AcDbEntity
  8
0
  6
ByLayer
 62
  256
370
   -1
100
AcDbLine
 10
-6.999999999999999
 20
245
 11
7.000000000000001
 21
245
  0
LINE
  5
112
100
AcDbEntity
  8
pipe
  6
ByLayer
 62
  256
370
   -1
100
AcDbLine
 10
7
 20
225
 11
7
 21
515
  0
LINE
  5
113
100
AcDbEntity
  8
pipe
  6
ByLayer
 62
  256
370
   -1
100
AcDbLine
 10
-7
 20
515
 11
-7
 21
225
  0
DIMENSION
  5
114
100
AcDbEntity
  8
length
  6
ByLayer
 62
  256
370
   -1
100
AcDbDimension
  2
*D2
 10
-80
 20
895
 30
0
 11
-81.875
 21
551.95
 31
0
 70
   32
 71
    5
 72
    0
  3
Standard
 53
0
210
0
220
0
230
1
100
AcDbAlignedDimension
 13
-4.201150844474995e-14
 23
208.9
 33
0
 14
0
 24
895
 34
0
 50
90
100
AcDbRotatedDimension
  0
DIMENSION
  5
115
100
AcDbEntity
  8
pipe
  6
ByLayer
 62
  256
370
   -1
100
AcDbDimension
  2
*D3
 10
100
 20
565
 30
0
 11
98.12500000000001
 21
725
 31
0
 70
   32
 71
    5
 72
    0
  3
Standard
 53
0
210
0
220
0
230
1
100
AcDbAlignedDimension
 13
7
 23
885
 33
0
 14
6.99999999999998
 24
565
 34
0
 50
90
100
AcDbRotatedDimension
  0
DIMENSION
  5
116
100
AcDbEntity
  8
pipe
  6
ByLayer
 62
  256
370
   -1
100
AcDbDimension
  2
*D4
 10
100
 20
225
 30
0
 11
98.125
 21
370
 31
0
 70
   32
 71
    5
 72
    0
  3
Standard
 53
0
210
0
220
0
230
1
100
AcDbAlignedDimension
 13
7
 23
515
 33
0
 14
7
 24
225
 34
0
 50
90
100
AcDbRotatedDimension
  0
DIMENSION
  5
117
100
AcDbEntity
  8
bottom
  6
ByLayer
 62
  256
370
   -1
100
AcDbDimension
  2
*D5
 10
40
 20
178.1
 30
0
 11
38.125
 21
173.1
 31
0
 70
   32
 71
    5
 72
    0
  3
Standard
 53
0
210
0
220
0
230
1
100
AcDbAlignedDimension
 13
24.99999999999996
 23
168.1
 33
0
 14
24.99999999999996
 24
178.1
 34
0
 50
90
100
AcDbRotatedDimension
  0
DIMENSION
  5
118
100
AcDbEntity
  8
bottom
  6
ByLayer
 62
  256
370
   -1
100
AcDbDimension
  2
*D6
 10
60
 20
225
 30
0
 11
58.125
 21
201.55
 31
0
 70
   32
 71
    5
 72
    0
  3
Standard
 53
0
210
0
220
0
230
1
100
AcDbAlignedDimension
 13
14.99999999999996
 23
178.1
 33
0
 14
15
 24
225
 34
0
 50
90
100
AcDbRotatedDimension
  0
DIMENSION
  5
119
100
AcDbEntity
  8
bottom
  6
ByLayer
 62
  256
370
   -1
100
AcDbDimension
  2
*D7
 10
40
 20
225
 30
0
 11
38.125
 21
235
 31
0
 70
   32
 71
    5
 72
    0
  3
Standard
 53
0
210
0
220
0
230
1
100
AcDbAlignedDimension
 13
7.000000000000001
 23
245
 33
0
 14
7
 24
225
 34
0
 50
90
100
AcDbRotatedDimension
  0
LINE
  5
11A
100
AcDbEntity
  8
bottom
  6
ByLayer
 62
  256
370
   -1
100
AcDbLine
 10
14.99999999999996
 20
178.1
 11
15
 21
225
  0
DIMENSION
  5
11B
100
AcDbEntity
  8
bottom
  6
ByLayer
 62
  256
370
   -1
100
AcDbDimension
  2
*D8
 10
30
 20
178.1
 30
0
 11
28.125
 21
193.5
 31
0
 70
   32
 71
    5
 72
    0
  3
Standard
 53
0
210
0
220
0
230
1
100
AcDbAlignedDimension
 13
-4.201150844474995e-14
 23
208.9
 33
0
 14
14.99999999999996
 24
178.1
 34
0
 50
90
100
AcDbRotatedDimension
  0
LINE
  5
11C
100
AcDbEntity
  8
0
  6
ByLayer
 62
  256
370
   -1
100
AcDbLine
 10
15
 20
225
 11
14.99999999999996
 21
178.1
  0
DIMENSION
  5
11D
100
AcDbEntity
  8
0
  6
ByLayer
 62
  256
370
   -1
100
AcDbDimension
  2
*D9
 10
24.99999999999996
 20
225
 30
0
 11
24.99999999999996
 21
226.875
 31
0
 70
   32
 71
    5
  3
Standard
 53
0
210
0
220
0
230
1
100
AcDbAlignedDimension
 13
15
 23
225
 33
0
 14
15
 24
225
 34
0
 50
90
100
AcDbRotatedDimension
  0
DIMENSION
  5
11E
100
AcDbEntity
  8
middle
  6
ByLayer
 62
  256
370
   -1
100
AcDbDimension
  2
*D10
 10
50
 20
515
 30
0
 11
48.125
 21
505
 31
0
 70
   32
 71
    5
  3
Standard
 53
0
210
0
220
0
230
1
100
AcDbAlignedDimension
 13
6.999999999999999
 23
495
 33
0
 14
10
 24
515
 34
0
 50
90
100
AcDbRotatedDimension
  0
DIMENSION
  5
11F
100
AcDbEntity
  8
middle
  6
ByLayer
 62
  256
370
   -1
100
AcDbDimension
  2
*D11
 10
50
 20
565
 30
0
 11
48.125
 21
540
 31
0
 70
   32
 71
    5
  3
Standard
 53
0
210
0
220
0
230
1
100
AcDbAlignedDimension
 13
10
 23
515
 33
0
 14
10
 24
565
 34
0
 50
90
100
AcDbRotatedDimension
  0
DIMENSION
  5
120
100
AcDbEntity
  8
middle
  6
ByLayer
 62
  256
370
   -1
100
AcDbDimension
  2
*D12
 10
-60
 20
500
 30
0
 11
-61.875
 21
523.475
 31
0
 70
   32
 71
    5
  3
Standard
 53
0
210
0
220
0
230
1
100
AcDbAlignedDimension
 13
-2.100575422237498e-14
 23
551.95
 33
0
 14
6.999999999999999
 24
495
 34
0
 50
90
100
AcDbRotatedDimension
  0
DIMENSION
  5
121
100
AcDbEntity
  8
middle
  6
ByLayer
 62
  256
370
   -1
100
AcDbDimension
  2
*D13
 10
-40
 20
495
 30
0
 11
-41.875
 21
514.525
 31
0
 70
   32
 71
    5
  3
Standard
 53
0
210
0
220
0
230
1
100
AcDbAlignedDimension
 13
-30.00000000000002
 23
534.05
 33
0
 14
-7.000000000000001
 24
495
 34
0
 50
90
100
AcDbRotatedDimension
  0
DIMENSION
  5
122
100
AcDbEntity
  8
middle
  6
ByLayer
 62
  256
370
   -1
100
AcDbDimension
  2
*D14
 10
40
 20
527.05
 30
0
 11
38.125
 21
534.05
 31
0
 70
   32
 71
    5
  3
Standard
 53
0
210
0
220
0
230
1
100
AcDbAlignedDimension
 13
29.99999999999998
 23
541.05
 33
0
 14
29.99999999999998
 24
527.05
 34
0
 50
90
100
AcDbRotatedDimension
  0
DIMENSION
  5
123
100
AcDbEntity
  8
middle
  6
ByLayer
 62
  256
370
   -1
100
AcDbDimension
  2
*D15
 10
49.99999999999999
 20
585
 30
0
 11
48.12499999999999
 21
575
 31
0
 70
   32
 71
    5
  3
Standard
 53
0
210
0
220
0
230
1
100
AcDbAlignedDimension
 13
10
 23
565
 33
0
 14
6.999999999999981
 24
585
 34
0
 50
90
100
AcDbRotatedDimension
  0
ENDSEC
  0
SECTION
  2
OBJECTS
  0
DICTIONARY
  5
C
330
0
100
AcDbDictionary
281
    1
  3
ACAD_GROUP
350
D
  0
DICTIONARY
  5
D
330
C
100
AcDbDictionary
281
    1
  0
ENDSEC
  0
EOF
