999
dxfrw 0.6.3
  0
SECTION
  2
HEADER
  9
$ACADVER
  1
AC1021
  9
$DWGCODEPAGE
  3
ANSI_1252
  9
$INSBASE
 10
0
 20
0
 30
0
  9
$EXTMIN
 10
-103.125
 20
0
 30
0
  9
$EXTMAX
 10
201.25
 20
900
 30
0
  9
$LIMMIN
 10
0
 20
0
  9
$LIMMAX
 10
420
 20
297
  9
$ORTHOMODE
 70
    0
  9
$REGENMODE
 70
    1
  9
$FILLMODE
 70
    1
  9
$QTEXTMODE
 70
    0
  9
$MIRRTEXT
 70
    0
  9
$LTSCALE
 40
1
  9
$ATTMODE
 70
    0
  9
$TEXTSIZE
 40
2.5
  9
$TRACEWID
 40
15.68
  9
$TEXTSTYLE
  7
STANDARD
  9
$CLAYER
  8
bottom
  9
$CELTYPE
  6
BYLAYER
  9
$CECOLOR
 62
  256
  9
$CELTSCALE
 40
1
  9
$DISPSILH
 70
    0
  9
$DIMSCALE
 40
1
  9
$DIMASZ
 40
2.5
  9
$DIMEXO
 40
0.625
  9
$DIMDLI
 40
3.75
  9
$DIMRND
 40
0
  9
$DIMDLE
 40
0
  9
$DIMEXE
 40
1.25
  9
$DIMTP
 40
0
  9
$DIMTM
 40
0
  9
$DIMTXT
 40
2.5
  9
$DIMCEN
 40
2.5
  9
$DIMTSZ
 40
0
  9
$DIMTOL
 70
    0
  9
$DIMLIM
 70
    0
  9
$DIMTIH
 70
    0
  9
$DIMTOH
 70
    0
  9
$DIMSE1
 70
    0
  9
$DIMSE2
 70
    0
  9
$DIMTAD
 70
    1
  9
$DIMZIN
 70
    8
  9
$DIMBLK
  1

  9
$DIMASO
 70
    1
  9
$DIMSHO
 70
    1
  9
$DIMPOST
  1

  9
$DIMAPOST
  1

  9
$DIMALT
 70
    0
  9
$DIMALTD
 70
    3
  9
$DIMALTF
 40
0.03937
  9
$DIMLFAC
 40
1
  9
$DIMTOFL
 70
    1
  9
$DIMTVP
 40
0
  9
$DIMTIX
 70
    0
  9
$DIMSOXD
 70
    0
  9
$DIMSAH
 70
    0
  9
$DIMBLK1
  1

  9
$DIMBLK2
  1

  9
$DIMSTYLE
  2
STANDARD
  9
$DIMCLRD
 70
    0
  9
$DIMCLRE
 70
    0
  9
$DIMCLRT
 70
    0
  9
$DIMTFAC
 40
1
  9
$DIMGAP
 40
0.625
  9
$DIMJUST
 70
    0
  9
$DIMSD1
 70
    0
  9
$DIMSD2
 70
    0
  9
$DIMTOLJ
 70
    0
  9
$DIMTZIN
 70
    8
  9
$DIMALTZ
 70
    0
  9
$DIMALTTZ
 70
    0
  9
$DIMUPT
 70
    0
  9
$DIMDEC
 70
    2
  9
$DIMTDEC
 70
    2
  9
$DIMALTU
 70
    2
  9
$DIMALTTD
 70
    3
  9
$DIMTXSTY
  7
STANDARD
  9
$DIMAUNIT
 70
    0
  9
$DIMADEC
 70
    0
  9
$DIMALTRND
 40
0
  9
$DIMAZIN
 70
    0
  9
$DIMDSEP
 70
   44
  9
$DIMATFIT
 70
    3
  9
$DIMFRAC
 70
    0
  9
$DIMLDRBLK
  1
STANDARD
  9
$DIMLUNIT
 70
    2
  9
$DIMLWD
 70
   -2
  9
$DIMLWE
 70
   -2
  9
$DIMTMOVE
 70
    0
  9
$DIMFXL
 40
1
  9
$DIMFXLON
 70
    0
  9
$DIMJOGANG
 40
0.7854
  9
$DIMTFILL
 70
    0
  9
$DIMTFILLCLR
 70
    0
  9
$DIMARCSYM
 70
    0
  9
$DIMLTYPE
  6

  9
$DIMLTEX1
  6

  9
$DIMLTEX2
  6

  9
$LUNITS
 70
    2
  9
$LUPREC
 70
    4
  9
$SKETCHINC
 40
1
  9
$FILLETRAD
 40
0
  9
$AUNITS
 70
    0
  9
$AUPREC
 70
    2
  9
$MENU
  1
.
  9
$ELEVATION
 40
0
  9
$PELEVATION
 40
0
  9
$THICKNESS
 40
0
  9
$LIMCHECK
 70
    0
  9
$CHAMFERA
 40
0
  9
$CHAMFERB
 40
0
  9
$CHAMFERC
 40
0
  9
$CHAMFERD
 40
0
  9
$SKPOLY
 70
    0
  9
$USRTIMER
 70
    1
  9
$ANGBASE
 50
0
  9
$ANGDIR
 70
    0
  9
$PDMODE
 70
   34
  9
$PDSIZE
 40
0
  9
$PLINEWID
 40
0
  9
$SPLFRAME
 70
    0
  9
$SPLINETYPE
 70
    2
  9
$SPLINESEGS
 70
    8
  9
$HANDSEED
  5
20000
  9
$SURFTAB1
 70
    6
  9
$SURFTAB2
 70
    6
  9
$SURFTYPE
 70
    6
  9
$SURFU
 70
    6
  9
$SURFV
 70
    6
  9
$UCSBASE
  2

  9
$UCSNAME
  2

  9
$UCSORG
 10
0
 20
0
 30
0
  9
$UCSXDIR
 10
1
 20
0
 30
0
  9
$UCSYDIR
 10
0
 20
1
 30
0
  9
$UCSORTHOREF
  2

  9
$UCSORTHOVIEW
 70
    0
  9
$UCSORGTOP
 10
0
 20
0
 30
0
  9
$UCSORGBOTTOM
 10
0
 20
0
 30
0
  9
$UCSORGLEFT
 10
0
 20
0
 30
0
  9
$UCSORGRIGHT
 10
0
 20
0
 30
0
  9
$UCSORGFRONT
 10
0
 20
0
 30
0
  9
$UCSORGBACK
 10
0
 20
0
 30
0
  9
$PUCSBASE
  2

  9
$PUCSNAME
  2

  9
$PUCSORG
 10
0
 20
0
 30
0
  9
$PUCSXDIR
 10
1
 20
0
 30
0
  9
$PUCSYDIR
 10
0
 20
1
 30
0
  9
$PUCSORTHOREF
  2

  9
$PUCSORTHOVIEW
 70
    0
  9
$PUCSORGTOP
 10
0
 20
0
 30
0
  9
$PUCSORGBOTTOM
 10
0
 20
0
 30
0
  9
$PUCSORGLEFT
 10
0
 20
0
 30
0
  9
$PUCSORGRIGHT
 10
0
 20
0
 30
0
  9
$PUCSORGFRONT
 10
0
 20
0
 30
0
  9
$PUCSORGBACK
 10
0
 20
0
 30
0
  9
$USERI1
 70
    0
  9
$USERI2
 70
    0
  9
$USERI3
 70
    0
  9
$USERI4
 70
    0
  9
$USERI5
 70
    0
  9
$USERR1
 40
0
  9
$USERR2
 40
0
  9
$USERR3
 40
0
  9
$USERR4
 40
0
  9
$USERR5
 40
0
  9
$WORLDVIEW
 70
    1
  9
$SHADEDGE
 70
    3
  9
$SHADEDIF
 70
   70
  9
$TILEMODE
 70
    1
  9
$MAXACTVP
 70
   64
  9
$PINSBASE
 10
0
 20
0
 30
0
  9
$PLIMCHECK
 70
    0
  9
$PEXTMIN
 10
0
 20
0
 30
0
  9
$PEXTMAX
 10
0
 20
0
 30
0
  9
$GRIDMODE
 70
    1
  9
$SNAPSTYLE
 70
    0
  9
$PLIMMIN
 10
0
 20
0
  9
$PLIMMAX
 10
210
 20
297
  9
$UNITMODE
 70
    0
  9
$VISRETAIN
 70
    1
  9
$PLINEGEN
 70
    0
  9
$PSLTSCALE
 70
    1
  9
$TREEDEPTH
 70
 3020
  9
$CMLSTYLE
  2
Standard
  9
$CMLJUST
 70
    0
  9
$CMLSCALE
 40
20
  9
$PROXYGRAPHICS
 70
    1
  9
$MEASUREMENT
 70
    1
  9
$CELWEIGHT
370
   -1
  9
$ENDCAPS
280
    0
  9
$JOINSTYLE
280
    0
  9
$LWDISPLAY
290
    0
  9
$INSUNITS
 70
    4
  9
$HYPERLINKBASE
  1

  9
$STYLESHEET
  1

  9
$XEDIT
290
    1
  9
$CEPSNTYPE
380
    0
  9
$PSTYLEMODE
290
    1
  9
$EXTNAMES
290
    1
  9
$PSVPSCALE
 40
1
  9
$OLESTARTUP
290
    0
  9
$SORTENTS
280
  127
  9
$INDEXCTL
280
    0
  9
$HIDETEXT
280
    1
  9
$XCLIPFRAME
290
    0
  9
$HALOGAP
280
    0
  9
$OBSCOLOR
 70
  257
  9
$OBSLTYPE
280
    0
  9
$INTERSECTIONDISPLAY
280
    0
  9
$INTERSECTIONCOLOR
 70
  257
  9
$DIMASSOC
280
    1
  9
$PROJECTNAME
  1

  9
$CAMERADISPLAY
290
    0
  9
$LENSLENGTH
 40
50
  9
$CAMERAHEIGHT
 40
0
  9
$STEPSPERSEC
 40
2
  9
$STEPSIZE
 40
50
  9
$3DDWFPREC
 40
2
  9
$PSOLWIDTH
 40
5
  9
$PSOLHEIGHT
 40
80
  9
$LOFTANG1
 40
1.570796326794897
  9
$LOFTANG2
 40
1.570796326794897
  9
$LOFTMAG1
 40
0
  9
$LOFTMAG2
 40
0
  9
$LOFTPARAM
 70
    7
  9
$LOFTNORMALS
280
    1
  9
$LATITUDE
 40
1
  9
$LONGITUDE
 40
1
  9
$NORTHDIRECTION
 40
0
  9
$TIMEZONE
 70
-8000
  9
$LIGHTGLYPHDISPLAY
280
    1
  9
$TILEMODELIGHTSYNCH
280
    1
  9
$SOLIDHIST
280
    1
  9
$SHOWHIST
280
    1
  9
$DWFFRAME
280
    2
  9
$DGNFRAME
280
    0
  9
$REALWORLDSCALE
290
    1
  9
$INTERFERECOLOR
 62
    1
  9
$CSHADOW
280
    0
  9
$SHADOWPLANELOCATION
 40
0
  0
ENDSEC
  0
SECTION
  2
CLASSES
  0
ENDSEC
  0
SECTION
  2
TABLES
  0
TABLE
  2
VPORT
  5
8
330
0
100
AcDbSymbolTable
 70
    1
  0
VPORT
  5
31
330
2
100
AcDbSymbolTableRecord
100
AcDbViewportTableRecord
  2
*ACTIVE
 70
    0
 10
0
 20
0
 11
1
 21
1
 12
108.7212351832131
 22
284.1836474618802
 13
0
 23
0
 14
10
 24
10
 15
10
 25
10
 16
0
 26
0
 36
1
 17
0
 27
0
 37
0
 40
162.5126316482059
 41
1.576182136602452
 42
50
 43
0
 44
0
 50
0
 51
0
 71
    0
 72
  100
 73
    1
 74
    3
 75
    0
 76
    1
 77
    0
 78
    0
281
    0
 65
    1
110
0
120
0
130
0
111
1
121
0
131
0
112
0
122
1
132
0
 79
    0
146
0
348
10020
 60
    7
 61
    5
292
1
282
    1
141
0
142
0
 63
  250
421
3358443
  0
ENDTAB
  0
TABLE
  2
LTYPE
  5
5
330
0
100
AcDbSymbolTable
 70
    4
  0
LTYPE
  5
14
330
5
100
AcDbSymbolTableRecord
100
AcDbLinetypeTableRecord
  2
ByBlock
 70
    0
  3

 72
   65
 73
    0
 40
0
  0
LTYPE
  5
15
330
5
100
AcDbSymbolTableRecord
100
AcDbLinetypeTableRecord
  2
ByLayer
 70
    0
  3

 72
   65
 73
    0
 40
0
  0
LTYPE
  5
16
330
5
100
AcDbSymbolTableRecord
100
AcDbLinetypeTableRecord
  2
Continuous
 70
    0
  3
Solid line
 72
   65
 73
    0
 40
0
  0
LTYPE
  5
32
330
5
100
AcDbSymbolTableRecord
100
AcDbLinetypeTableRecord
  2
DOT
 70
    0
  3
Dot . . . . . . . . . . . . . . . . . . . . . .
 72
   65
 73
    2
 40
6.35
 49
0
 74
    0
 49
-6.35
 74
    0
  0
LTYPE
  5
33
330
5
100
AcDbSymbolTableRecord
100
AcDbLinetypeTableRecord
  2
DOTTINY
 70
    0
  3
Dot (.15x) .....................................
 72
   65
 73
    2
 40
0.9525
 49
0
 74
    0
 49
-0.9525
 74
    0
  0
LTYPE
  5
34
330
5
100
AcDbSymbolTableRecord
100
AcDbLinetypeTableRecord
  2
DOT2
 70
    0
  3
Dot (.5x) .....................................
 72
   65
 73
    2
 40
3.175
 49
0
 74
    0
 49
-3.175
 74
    0
  0
LTYPE
  5
35
330
5
100
AcDbSymbolTableRecord
100
AcDbLinetypeTableRecord
  2
DOTX2
 70
    0
  3
Dot (2x) .  .  .  .  .  .  .  .  .  .  .  .  .
 72
   65
 73
    2
 40
12.7
 49
0
 74
    0
 49
-12.7
 74
    0
  0
LTYPE
  5
36
330
5
100
AcDbSymbolTableRecord
100
AcDbLinetypeTableRecord
  2
DASHED
 70
    0
  3
Dashed _ _ _ _ _ _ _ _ _ _ _ _ _ _ _ _ _
 72
   65
 73
    2
 40
19.05
 49
12.7
 74
    0
 49
-6.35
 74
    0
  0
LTYPE
  5
37
330
5
100
AcDbSymbolTableRecord
100
AcDbLinetypeTableRecord
  2
DASHEDTINY
 70
    0
  3
Dashed (.15x) _ _ _ _ _ _ _ _ _ _ _ _ _ _ _ _ _
 72
   65
 73
    2
 40
2.8575
 49
1.905
 74
    0
 49
-0.9525
 74
    0
  0
LTYPE
  5
38
330
5
100
AcDbSymbolTableRecord
100
AcDbLinetypeTableRecord
  2
DASHED2
 70
    0
  3
Dashed (.5x) _ _ _ _ _ _ _ _ _ _ _ _ _ _ _ _ _
 72
   65
 73
    2
 40
9.524999999999999
 49
6.35
 74
    0
 49
-3.175
 74
    0
  0
LTYPE
  5
39
330
5
100
AcDbSymbolTableRecord
100
AcDbLinetypeTableRecord
  2
DASHEDX2
 70
    0
  3
Dashed (2x) ____  ____  ____  ____  ____  ___
 72
   65
 73
    2
 40
38.09999999999999
 49
25.4
 74
    0
 49
-12.7
 74
    0
  0
LTYPE
  5
3A
330
5
100
AcDbSymbolTableRecord
100
AcDbLinetypeTableRecord
  2
DASHDOT
 70
    0
  3
Dash dot __ . __ . __ . __ . __ . __ . __ . __
 72
   65
 73
    4
 40
25.4
 49
12.7
 74
    0
 49
-6.35
 74
    0
 49
0
 74
    0
 49
-6.35
 74
    0
  0
LTYPE
  5
3B
330
5
100
AcDbSymbolTableRecord
100
AcDbLinetypeTableRecord
  2
DASHDOTTINY
 70
    0
  3
Dash dot (.15x) _._._._._._._._._._._._._._._.
 72
   65
 73
    4
 40
3.81
 49
1.905
 74
    0
 49
-0.9525
 74
    0
 49
0
 74
    0
 49
-0.9525
 74
    0
  0
LTYPE
  5
3C
330
5
100
AcDbSymbolTableRecord
100
AcDbLinetypeTableRecord
  2
DASHDOT2
 70
    0
  3
Dash dot (.5x) _._._._._._._._._._._._._._._.
 72
   65
 73
    4
 40
12.7
 49
6.35
 74
    0
 49
-3.175
 74
    0
 49
0
 74
    0
 49
-3.175
 74
    0
  0
LTYPE
  5
3D
330
5
100
AcDbSymbolTableRecord
100
AcDbLinetypeTableRecord
  2
DASHDOTX2
 70
    0
  3
Dash dot (2x) ____  .  ____  .  ____  .  ___
 72
   65
 73
    4
 40
50.8
 49
25.4
 74
    0
 49
-12.7
 74
    0
 49
0
 74
    0
 49
-12.7
 74
    0
  0
LTYPE
  5
3E
330
5
100
AcDbSymbolTableRecord
100
AcDbLinetypeTableRecord
  2
DIVIDE
 70
    0
  3
Divide ____ . . ____ . . ____ . . ____ . . ____
 72
   65
 73
    6
 40
31.75
 49
12.7
 74
    0
 49
-6.35
 74
    0
 49
0
 74
    0
 49
-6.35
 74
    0
 49
0
 74
    0
 49
-6.35
 74
    0
  0
LTYPE
  5
3F
330
5
100
AcDbSymbolTableRecord
100
AcDbLinetypeTableRecord
  2
DIVIDETINY
 70
    0
  3
Divide (.15x) __..__..__..__..__..__..__..__.._
 72
   65
 73
    6
 40
4.7625
 49
1.905
 74
    0
 49
-0.9525
 74
    0
 49
0
 74
    0
 49
-0.9525
 74
    0
 49
0
 74
    0
 49
-0.9525
 74
    0
  0
LTYPE
  5
40
330
5
100
AcDbSymbolTableRecord
100
AcDbLinetypeTableRecord
  2
DIVIDE2
 70
    0
  3
Divide (.5x) __..__..__..__..__..__..__..__.._
 72
   65
 73
    6
 40
15.875
 49
6.35
 74
    0
 49
-3.175
 74
    0
 49
0
 74
    0
 49
-3.175
 74
    0
 49
0
 74
    0
 49
-3.175
 74
    0
  0
LTYPE
  5
41
330
5
100
AcDbSymbolTableRecord
100
AcDbLinetypeTableRecord
  2
DIVIDEX2
 70
    0
  3
Divide (2x) ________  .  .  ________  .  .  _
 72
   65
 73
    6
 40
63.5
 49
25.4
 74
    0
 49
-12.7
 74
    0
 49
0
 74
    0
 49
-12.7
 74
    0
 49
0
 74
    0
 49
-12.7
 74
    0
  0
LTYPE
  5
42
330
5
100
AcDbSymbolTableRecord
100
AcDbLinetypeTableRecord
  2
BORDER
 70
    0
  3
Border __ __ . __ __ . __ __ . __ __ . __ __ .
 72
   65
 73
    6
 40
44.45
 49
12.7
 74
    0
 49
-6.35
 74
    0
 49
12.7
 74
    0
 49
-6.35
 74
    0
 49
0
 74
    0
 49
-6.35
 74
    0
  0
LTYPE
  5
43
330
5
100
AcDbSymbolTableRecord
100
AcDbLinetypeTableRecord
  2
BORDERTINY
 70
    0
  3
Border (.15x) __.__.__.__.__.__.__.__.__.__.__.
 72
   65
 73
    6
 40
6.6675
 49
1.905
 74
    0
 49
-0.9525
 74
    0
 49
1.905
 74
    0
 49
-0.9525
 74
    0
 49
0
 74
    0
 49
-0.9525
 74
    0
  0
LTYPE
  5
44
330
5
100
AcDbSymbolTableRecord
100
AcDbLinetypeTableRecord
  2
BORDER2
 70
    0
  3
Border (.5x) __.__.__.__.__.__.__.__.__.__.__.
 72
   65
 73
    6
 40
22.225
 49
6.35
 74
    0
 49
-3.175
 74
    0
 49
6.35
 74
    0
 49
-3.175
 74
    0
 49
0
 74
    0
 49
-3.175
 74
    0
  0
LTYPE
  5
45
330
5
100
AcDbSymbolTableRecord
100
AcDbLinetypeTableRecord
  2
BORDERX2
 70
    0
  3
Border (2x) ____  ____  .  ____  ____  .  ___
 72
   65
 73
    6
 40
88.89999999999999
 49
25.4
 74
    0
 49
-12.7
 74
    0
 49
25.4
 74
    0
 49
-12.7
 74
    0
 49
0
 74
    0
 49
-12.7
 74
    0
  0
LTYPE
  5
46
330
5
100
AcDbSymbolTableRecord
100
AcDbLinetypeTableRecord
  2
CENTER
 70
    0
  3
Center ____ _ ____ _ ____ _ ____ _ ____ _ ____
 72
   65
 73
    4
 40
50.8
 49
31.75
 74
    0
 49
-6.35
 74
    0
 49
6.35
 74
    0
 49
-6.35
 74
    0
  0
LTYPE
  5
47
330
5
100
AcDbSymbolTableRecord
100
AcDbLinetypeTableRecord
  2
CENTERTINY
 70
    0
  3
Center (.15x) ___ _ ___ _ ___ _ ___ _ ___ _ ___
 72
   65
 73
    4
 40
7.619999999999999
 49
4.7625
 74
    0
 49
-0.9525
 74
    0
 49
0.9525
 74
    0
 49
-0.9525
 74
    0
  0
LTYPE
  5
48
330
5
100
AcDbSymbolTableRecord
100
AcDbLinetypeTableRecord
  2
CENTER2
 70
    0
  3
Center (.5x) ___ _ ___ _ ___ _ ___ _ ___ _ ___
 72
   65
 73
    4
 40
28.575
 49
19.05
 74
    0
 49
-3.175
 74
    0
 49
3.175
 74
    0
 49
-3.175
 74
    0
  0
LTYPE
  5
49
330
5
100
AcDbSymbolTableRecord
100
AcDbLinetypeTableRecord
  2
CENTERX2
 70
    0
  3
Center (2x) ________  __  ________  __  _____
 72
   65
 73
    4
 40
101.6
 49
63.5
 74
    0
 49
-12.7
 74
    0
 49
12.7
 74
    0
 49
-12.7
 74
    0
  0
ENDTAB
  0
TABLE
  2
LAYER
  5
2
330
0
100
AcDbSymbolTable
 70
    1
  0
LAYER
  5
10
330
2
100
AcDbSymbolTableRecord
100
AcDbLayerTableRecord
  2
0
 70
    0
 62
    7
  6
CONTINUOUS
370
    0
390
F
  0
LAYER
  5
4A
330
2
100
AcDbSymbolTableRecord
100
AcDbLayerTableRecord
  2
bottom
 70
    0
 62
  136
420
32896
  6
CONTINUOUS
370
    0
390
F
  0
LAYER
  5
4B
330
2
100
AcDbSymbolTableRecord
100
AcDbLayerTableRecord
  2
length
 70
    0
 62
   96
420
32768
  6
CONTINUOUS
370
    0
390
F
  0
LAYER
  5
4C
330
2
100
AcDbSymbolTableRecord
100
AcDbLayerTableRecord
  2
middle
 70
    1
 62
  136
420
32896
  6
CONTINUOUS
370
    0
390
F
  0
LAYER
  5
4D
330
2
100
AcDbSymbolTableRecord
100
AcDbLayerTableRecord
  2
pipe
 70
    0
 62
    2
  6
CONTINUOUS
370
    0
390
F
  0
LAYER
  5
4E
330
2
100
AcDbSymbolTableRecord
100
AcDbLayerTableRecord
  2
stubs
 70
    0
 62
  136
420
32896
  6
CONTINUOUS
370
    0
390
F
  0
ENDTAB
  0
TABLE
  2
STYLE
  5
3
330
0
100
AcDbSymbolTable
 70
    3
  0
STYLE
  5
4F
330
2
100
AcDbSymbolTableRecord
100
AcDbTextStyleTableRecord
  2
Standard
 70
    0
 40
0
 41
1
 50
0
 71
    0
 42
1
  3
txt
  4

  0
ENDTAB
  0
TABLE
  2
VIEW
  5
6
330
0
100
AcDbSymbolTable
 70
    0
  0
ENDTAB
  0
TABLE
  2
UCS
  5
7
330
0
100
AcDbSymbolTable
 70
    0
  0
ENDTAB
  0
TABLE
  2
APPID
  5
9
330
0
100
AcDbSymbolTable
 70
    1
  0
APPID
  5
12
330
9
100
AcDbSymbolTableRecord
100
AcDbRegAppTableRecord
  2
ACAD
 70
    0
  0
APPID
  5
50
330
9
100
AcDbSymbolTableRecord
100
AcDbRegAppTableRecord
  2
LibreCad
 70
    0
  0
ENDTAB
  0
TABLE
  2
DIMSTYLE
  5
A
330
0
100
AcDbSymbolTable
 70
    1
100
AcDbDimStyleTable
 71
    1
  0
DIMSTYLE
105
51
330
A
100
AcDbSymbolTableRecord
100
AcDbDimStyleTableRecord
  2
Standard
 70
    0
 40
1
 41
2.5
 42
0.625
 43
0.38
 44
1.25
 45
0
 46
0
 47
0
 48
0
 49
1
140
2.5
141
0.09
142
0
143
25.4
144
1
145
0
146
1
147
0.625
148
0
 71
    0
 72
    0
 73
    0
 74
    1
 75
    0
 76
    0
 77
    0
 78
    8
 79
    0
170
    0
171
    2
172
    0
173
    0
174
    0
175
    0
176
    0
177
    0
178
    0
179
    0
271
    2
272
    4
273
    2
274
    2
275
    0
276
    0
277
    2
278
   44
279
    0
280
    0
281
    0
282
    0
283
    1
284
    0
285
    0
286
    0
288
    0
289
    3
340
STANDARD
341

371
   -2
372
   -2
  0
ENDTAB
  0
TABLE
  2
BLOCK_RECORD
  5
1
330
0
100
AcDbSymbolTable
 70
    2
  0
BLOCK_RECORD
  5
1F
330
1
100
AcDbSymbolTableRecord
100
AcDbBlockTableRecord
  2
*Model_Space
 70
    0
280
    1
281
    0
  0
BLOCK_RECORD
  5
1E
330
1
100
AcDbSymbolTableRecord
100
AcDbBlockTableRecord
  2
*Paper_Space
 70
    0
280
    1
281
    0
  0
BLOCK_RECORD
  5
52
330
1
100
AcDbSymbolTableRecord
100
AcDbBlockTableRecord
  2
*D8
 70
    0
280
    1
281
    0
  0
BLOCK_RECORD
  5
55
330
1
100
AcDbSymbolTableRecord
100
AcDbBlockTableRecord
  2
*D24
 70
    0
280
    1
281
    0
  0
BLOCK_RECORD
  5
58
330
1
100
AcDbSymbolTableRecord
100
AcDbBlockTableRecord
  2
*D15
 70
    0
280
    1
281
    0
  0
BLOCK_RECORD
  5
5B
330
1
100
AcDbSymbolTableRecord
100
AcDbBlockTableRecord
  2
*D16
 70
    0
280
    1
281
    0
  0
BLOCK_RECORD
  5
5E
330
1
100
AcDbSymbolTableRecord
100
AcDbBlockTableRecord
  2
*D17
 70
    0
280
    1
281
    0
  0
BLOCK_RECORD
  5
61
330
1
100
AcDbSymbolTableRecord
100
AcDbBlockTableRecord
  2
*D1
 70
    0
280
    1
281
    0
  0
BLOCK_RECORD
  5
64
330
1
100
AcDbSymbolTableRecord
100
AcDbBlockTableRecord
  2
*D7
 70
    0
280
    1
281
    0
  0
BLOCK_RECORD
  5
67
330
1
100
AcDbSymbolTableRecord
100
AcDbBlockTableRecord
  2
*D22
 70
    0
280
    1
281
    0
  0
BLOCK_RECORD
  5
6A
330
1
100
AcDbSymbolTableRecord
100
AcDbBlockTableRecord
  2
*D12
 70
    0
280
    1
281
    0
  0
BLOCK_RECORD
  5
6D
330
1
100
AcDbSymbolTableRecord
100
AcDbBlockTableRecord
  2
*D2
 70
    0
280
    1
281
    0
  0
BLOCK_RECORD
  5
70
330
1
100
AcDbSymbolTableRecord
100
AcDbBlockTableRecord
  2
*D18
 70
    0
280
    1
281
    0
  0
BLOCK_RECORD
  5
73
330
1
100
AcDbSymbolTableRecord
100
AcDbBlockTableRecord
  2
*D14
 70
    0
280
    1
281
    0
  0
BLOCK_RECORD
  5
76
330
1
100
AcDbSymbolTableRecord
100
AcDbBlockTableRecord
  2
*D4
 70
    0
280
    1
281
    0
  0
BLOCK_RECORD
  5
79
330
1
100
AcDbSymbolTableRecord
100
AcDbBlockTableRecord
  2
*D5
 70
    0
280
    1
281
    0
  0
BLOCK_RECORD
  5
7C
330
1
100
AcDbSymbolTableRecord
100
AcDbBlockTableRecord
  2
*D13
 70
    0
280
    1
281
    0
  0
BLOCK_RECORD
  5
7F
330
1
100
AcDbSymbolTableRecord
100
AcDbBlockTableRecord
  2
*D10
 70
    0
280
    1
281
    0
  0
BLOCK_RECORD
  5
82
330
1
100
AcDbSymbolTableRecord
100
AcDbBlockTableRecord
  2
*D23
 70
    0
280
    1
281
    0
  0
BLOCK_RECORD
  5
85
330
1
100
AcDbSymbolTableRecord
100
AcDbBlockTableRecord
  2
*D21
 70
    0
280
    1
281
    0
  0
BLOCK_RECORD
  5
88
330
1
100
AcDbSymbolTableRecord
100
AcDbBlockTableRecord
  2
*D6
 70
    0
280
    1
281
    0
  0
BLOCK_RECORD
  5
8B
330
1
100
AcDbSymbolTableRecord
100
AcDbBlockTableRecord
  2
*D19
 70
    0
280
    1
281
    0
  0
BLOCK_RECORD
  5
8E
330
1
100
AcDbSymbolTableRecord
100
AcDbBlockTableRecord
  2
*D20
 70
    0
280
    1
281
    0
  0
BLOCK_RECORD
  5
91
330
1
100
AcDbSymbolTableRecord
100
AcDbBlockTableRecord
  2
*D11
 70
    0
280
    1
281
    0
  0
BLOCK_RECORD
  5
94
330
1
100
AcDbSymbolTableRecord
100
AcDbBlockTableRecord
  2
*D9
 70
    0
280
    1
281
    0
  0
BLOCK_RECORD
  5
97
330
1
100
AcDbSymbolTableRecord
100
AcDbBlockTableRecord
  2
*D3
 70
    0
280
    1
281
    0
  0
ENDTAB
  0
ENDSEC
  0
SECTION
  2
BLOCKS
  0
BLOCK
  5
20
330
1F
100
AcDbEntity
  8
0
100
AcDbBlockBegin
  2
*Model_Space
 70
    0
 10
0
 20
0
 30
0
  3
*Model_Space
  1

  0
ENDBLK
  5
21
330
1F
100
AcDbEntity
  8
0
100
AcDbBlockEnd
  0
BLOCK
  5
1C
330
1B
100
AcDbEntity
  8
0
100
AcDbBlockBegin
  2
*Paper_Space
 70
    0
 10
0
 20
0
 30
0
  3
*Paper_Space
  1

  0
ENDBLK
  5
1D
330
1F
100
AcDbEntity
  8
0
100
AcDbBlockEnd
  0
BLOCK
  5
53
330
52
100
AcDbEntity
  8
0
100
AcDbBlockBegin
  2
*D8
 70
    1
 10
0
 20
0
  3
*D8
  1

  0
LINE
  5
9A
100
AcDbEntity
  8
middle
  6
ByBlock
 62
    0
370
   -2
100
AcDbLine
 10
50
 20
495
 11
50
 21
515
  0
SOLID
  5
9B
100
AcDbEntity
  8
middle
  6
ByBlock
 62
    0
370
   -2
100
AcDbTrace
 10
50
 20
495
 30
0
 11
49.58371534222716
 21
497.5
 31
0
 12
50.41628465777284
 22
497.5
 32
0
 13
50.41628465777284
 23
497.5
 33
0
  0
SOLID
  5
9C
100
AcDbEntity
  8
middle
  6
ByBlock
 62
    0
370
   -2
100
AcDbTrace
 10
50
 20
515
 30
0
 11
50.41628465777284
 21
512.5
 31
0
 12
49.58371534222716
 22
512.5
 32
0
 13
49.58371534222716
 23
512.5
 33
0
  0
MTEXT
  5
9D
100
AcDbEntity
  8
middle
  6
CONTINUOUS
 62
    0
370
   -2
100
AcDbMText
 10
48.125
 20
505
 30
0
 40
2.5
 41
3.055555555555556
 71
    5
 72
    1
  1
20
  7
STANDARD
210
0
220
0
230
1
 50
90
 73
    2
 44
1
  0
LINE
  5
9E
100
AcDbEntity
  8
middle
  6
ByBlock
 62
    0
370
   -2
100
AcDbLine
 10
7.624999999999999
 20
495
 11
51.25
 21
495
  0
LINE
  5
9F
100
AcDbEntity
  8
middle
  6
ByBlock
 62
    0
370
   -2
100
AcDbLine
 10
10.625
 20
515
 11
51.25
 21
515
  0
ENDBLK
  5
54
330
52
100
AcDbEntity
  8
0
100
AcDbBlockEnd
  0
BLOCK
  5
56
330
55
100
AcDbEntity
  8
0
100
AcDbBlockBegin
  2
*D24
 70
    1
 10
0
 20
0
  3
*D24
  1

  0
LINE
  5
A0
100
AcDbEntity
  8
bottom
  6
ByBlock
 62
    0
370
   -2
100
AcDbLine
 10
130
 20
520
 11
150
 21
520
  0
SOLID
  5
A1
100
AcDbEntity
  8
bottom
  6
ByBlock
 62
    0
370
   -2
100
AcDbTrace
 10
130
 20
520
 30
0
 11
132.5
 21
520.4162846577728
 31
0
 12
132.5
 22
519.5837153422272
 32
0
 13
132.5
 23
519.5837153422272
 33
0
  0
SOLID
  5
A2
100
AcDbEntity
  8
bottom
  6
ByBlock
 62
    0
370
   -2
100
AcDbTrace
 10
150
 20
520
 30
0
 11
147.5
 21
519.5837153422272
 31
0
 12
147.5
 22
520.4162846577728
 32
0
 13
147.5
 23
520.4162846577728
 33
0
  0
MTEXT
  5
A3
100
AcDbEntity
  8
bottom
  6
CONTINUOUS
 62
    0
370
   -2
100
AcDbMText
 10
140
 20
521.875
 30
0
 40
2.5
 41
3.055555555555556
 71
    5
 72
    1
  1
20
  7
STANDARD
210
0
220
0
230
1
 50
0
 73
    2
 44
1
  0
LINE
  5
A4
100
AcDbEntity
  8
bottom
  6
ByBlock
 62
    0
370
   -2
100
AcDbLine
 10
130
 20
526.425
 11
130
 21
518.75
  0
LINE
  5
A5
100
AcDbEntity
  8
bottom
  6
ByBlock
 62
    0
370
   -2
100
AcDbLine
 10
150
 20
523.425
 11
150
 21
518.75
  0
ENDBLK
  5
57
330
55
100
AcDbEntity
  8
0
100
AcDbBlockEnd
  0
BLOCK
  5
59
330
58
100
AcDbEntity
  8
0
100
AcDbBlockBegin
  2
*D15
 70
    1
 10
0
 20
0
  3
*D15
  1

  0
LINE
  5
A6
100
AcDbEntity
  8
pipe
  6
ByBlock
 62
    0
370
   -2
100
AcDbLine
 10
-49.99999999999999
 20
885
 11
-50.00000000000001
 21
565
  0
SOLID
  5
A7
100
AcDbEntity
  8
pipe
  6
ByBlock
 62
    0
370
   -2
100
AcDbTrace
 10
-49.99999999999999
 20
885
 30
0
 11
-49.58371534222714
 21
882.5
 31
0
 12
-50.41628465777283
 22
882.5
 32
0
 13
-50.41628465777283
 23
882.5
 33
0
  0
SOLID
  5
A8
100
AcDbEntity
  8
pipe
  6
ByBlock
 62
    0
370
   -2
100
AcDbTrace
 10
-50.00000000000001
 20
565
 30
0
 11
-50.41628465777285
 21
567.5
 31
0
 12
-49.58371534222717
 22
567.5
 32
0
 13
-49.58371534222717
 23
567.5
 33
0
  0
MTEXT
  5
A9
100
AcDbEntity
  8
pipe
  6
CONTINUOUS
 62
    0
370
   -2
100
AcDbMText
 10
-51.875
 20
725
 30
0
 40
2.5
 41
5.000000000000155
 71
    5
 72
    1
  1
320
  7
STANDARD
210
0
220
0
230
1
 50
90
 73
    2
 44
1
  0
LINE
  5
AA
100
AcDbEntity
  8
pipe
  6
ByBlock
 62
    0
370
   -2
100
AcDbLine
 10
-7.625
 20
885
 11
-51.24999999999999
 21
885
  0
LINE
  5
AB
100
AcDbEntity
  8
pipe
  6
ByBlock
 62
    0
370
   -2
100
AcDbLine
 10
-7.62500000000002
 20
565
 11
-51.25000000000001
 21
565
  0
ENDBLK
  5
5A
330
58
100
AcDbEntity
  8
0
100
AcDbBlockEnd
  0
BLOCK
  5
5C
330
5B
100
AcDbEntity
  8
0
100
AcDbBlockBegin
  2
*D16
 70
    1
 10
0
 20
0
  3
*D16
  1

  0
LINE
  5
AC
100
AcDbEntity
  8
pipe
  6
ByBlock
 62
    0
370
   -2
100
AcDbLine
 10
50
 20
500
 11
180
 21
500
  0
SOLID
  5
AD
100
AcDbEntity
  8
pipe
  6
ByBlock
 62
    0
370
   -2
100
AcDbTrace
 10
50
 20
500
 30
0
 11
52.5
 21
500.4162846577728
 31
0
 12
52.5
 22
499.5837153422272
 32
0
 13
52.5
 23
499.5837153422272
 33
0
  0
SOLID
  5
AE
100
AcDbEntity
  8
pipe
  6
ByBlock
 62
    0
370
   -2
100
AcDbTrace
 10
180
 20
500
 30
0
 11
177.5
 21
499.5837153422272
 31
0
 12
177.5
 22
500.4162846577728
 32
0
 13
177.5
 23
500.4162846577728
 33
0
  0
MTEXT
  5
AF
100
AcDbEntity
  8
pipe
  6
CONTINUOUS
 62
    0
370
   -2
100
AcDbMText
 10
115
 20
501.875
 30
0
 40
2.5
 41
4.444444444444599
 71
    5
 72
    1
  1
130
  7
STANDARD
210
0
220
0
230
1
 50
0
 73
    2
 44
1
  0
LINE
  5
B0
100
AcDbEntity
  8
pipe
  6
ByBlock
 62
    0
370
   -2
100
AcDbLine
 10
50
 20
487.625
 11
50
 21
501.25
  0
LINE
  5
B1
100
AcDbEntity
  8
pipe
  6
ByBlock
 62
    0
370
   -2
100
AcDbLine
 10
180
 20
487.625
 11
180
 21
501.25
  0
ENDBLK
  5
5D
330
5B
100
AcDbEntity
  8
0
100
AcDbBlockEnd
  0
BLOCK
  5
5F
330
5E
100
AcDbEntity
  8
0
100
AcDbBlockBegin
  2
*D17
 70
    1
 10
0
 20
0
  3
*D17
  1

  0
LINE
  5
B2
100
AcDbEntity
  8
stubs
  6
ByBlock
 62
    0
370
   -2
100
AcDbLine
 10
180
 20
465
 11
189.45
 21
465
  0
SOLID
  5
B3
100
AcDbEntity
  8
stubs
  6
ByBlock
 62
    0
370
   -2
100
AcDbTrace
 10
180
 20
465
 30
0
 11
182.5
 21
465.4162846577728
 31
0
 12
182.5
 22
464.5837153422272
 32
0
 13
182.5
 23
464.5837153422272
 33
0
  0
SOLID
  5
B4
100
AcDbEntity
  8
stubs
  6
ByBlock
 62
    0
370
   -2
100
AcDbTrace
 10
189.45
 20
465
 30
0
 11
186.95
 21
464.5837153422272
 31
0
 12
186.95
 22
465.4162846577728
 32
0
 13
186.95
 23
465.4162846577728
 33
0
  0
MTEXT
  5
B5
100
AcDbEntity
  8
stubs
  6
CONTINUOUS
 62
    0
370
   -2
100
AcDbMText
 10
184.725
 20
466.875
 30
0
 40
2.5
 41
6.25000000000031
 71
    5
 72
    1
  1
9,45
  7
STANDARD
210
0
220
0
230
1
 50
0
 73
    2
 44
1
  0
LINE
  5
B6
100
AcDbEntity
  8
stubs
  6
ByBlock
 62
    0
370
   -2
100
AcDbLine
 10
180
 20
469.375
 11
180
 21
463.75
  0
LINE
  5
B7
100
AcDbEntity
  8
stubs
  6
ByBlock
 62
    0
370
   -2
100
AcDbLine
 10
189.45
 20
469.375
 11
189.45
 21
463.75
  0
ENDBLK
  5
60
330
5E
100
AcDbEntity
  8
0
100
AcDbBlockEnd
  0
BLOCK
  5
62
330
61
100
AcDbEntity
  8
0
100
AcDbBlockBegin
  2
*D1
 70
    1
 10
0
 20
0
  3
*D1
  1

  0
LINE
  5
B8
100
AcDbEntity
  8
length
  6
ByBlock
 62
    0
370
   -2
100
AcDbLine
 10
-100
 20
895
 11
-100
 21
173.1
  0
SOLID
  5
B9
100
AcDbEntity
  8
length
  6
ByBlock
 62
    0
370
   -2
100
AcDbTrace
 10
-100
 20
895
 30
0
 11
-99.58371534222717
 21
892.5
 31
0
 12
-100.4162846577728
 22
892.5
 32
0
 13
-100.4162846577728
 23
892.5
 33
0
  0
SOLID
  5
BA
100
AcDbEntity
  8
length
  6
ByBlock
 62
    0
370
   -2
100
AcDbTrace
 10
-100
 20
173.1
 30
0
 11
-100.4162846577728
 21
175.6
 31
0
 12
-99.58371534222717
 22
175.6
 32
0
 13
-99.58371534222717
 23
175.6
 33
0
  0
MTEXT
  5
BB
100
AcDbEntity
  8
length
  6
CONTINUOUS
 62
    0
370
   -2
100
AcDbMText
 10
-101.875
 20
534.0500000000001
 30
0
 40
2.5
 41
7.361111111111112
 71
    5
 72
    1
  1
721,9
  7
STANDARD
210
0
220
0
230
1
 50
90
 73
    2
 44
1
  0
LINE
  5
BC
100
AcDbEntity
  8
length
  6
ByBlock
 62
    0
370
   -2
100
AcDbLine
 10
-25.625
 20
895
 11
-101.25
 21
895
  0
LINE
  5
BD
100
AcDbEntity
  8
length
  6
ByBlock
 62
    0
370
   -2
100
AcDbLine
 10
-25.62500000000004
 20
173.1
 11
-101.25
 21
173.1
  0
ENDBLK
  5
63
330
61
100
AcDbEntity
  8
0
100
AcDbBlockEnd
  0
BLOCK
  5
65
330
64
100
AcDbEntity
  8
0
100
AcDbBlockBegin
  2
*D7
 70
    1
 10
0
 20
0
  3
*D7
  1

  0
LINE
  5
BE
100
AcDbEntity
  8
0
  6
ByBlock
 62
    0
370
   -2
100
AcDbLine
 10
29.99999999999996
 20
225
 11
19.99999999999996
 21
225
  0
SOLID
  5
BF
100
AcDbEntity
  8
0
  6
ByBlock
 62
    0
370
   -2
100
AcDbTrace
 10
24.99999999999996
 20
225
 30
0
 11
22.49999999999996
 21
224.5837153422272
 31
0
 12
22.49999999999996
 22
225.4162846577728
 32
0
 13
22.49999999999996
 23
225.4162846577728
 33
0
  0
SOLID
  5
C0
100
AcDbEntity
  8
0
  6
ByBlock
 62
    0
370
   -2
100
AcDbTrace
 10
24.99999999999996
 20
225
 30
0
 11
22.49999999999996
 21
224.5837153422272
 31
0
 12
22.49999999999996
 22
225.4162846577728
 32
0
 13
22.49999999999996
 23
225.4162846577728
 33
0
  0
MTEXT
  5
C1
100
AcDbEntity
  8
0
  6
CONTINUOUS
 62
    0
370
   -2
100
AcDbMText
 10
26.18055555555552
 20
226.875
 30
0
 40
2.5
 41
1.111111111111111
 71
    5
 72
    1
  1
0
  7
STANDARD
210
0
220
0
230
1
 50
360
 73
    2
 44
1
  0
LINE
  5
C2
100
AcDbEntity
  8
0
  6
ByBlock
 62
    0
370
   -2
100
AcDbLine
 10
15.625
 20
225
 11
26.24999999999996
 21
225
  0
LINE
  5
C3
100
AcDbEntity
  8
0
  6
ByBlock
 62
    0
370
   -2
100
AcDbLine
 10
15.625
 20
225
 11
26.24999999999996
 21
225
  0
ENDBLK
  5
66
330
64
100
AcDbEntity
  8
0
100
AcDbBlockEnd
  0
BLOCK
  5
68
330
67
100
AcDbEntity
  8
0
100
AcDbBlockBegin
  2
*D22
 70
    1
 10
0
 20
0
  3
*D22
  1

  0
LINE
  5
C4
100
AcDbEntity
  8
bottom
  6
ByBlock
 62
    0
370
   -2
100
AcDbLine
 10
150
 20
520
 11
157.3
 21
520
  0
SOLID
  5
C5
100
AcDbEntity
  8
bottom
  6
ByBlock
 62
    0
370
   -2
100
AcDbTrace
 10
150
 20
520
 30
0
 11
152.5
 21
520.4162846577728
 31
0
 12
152.5
 22
519.5837153422272
 32
0
 13
152.5
 23
519.5837153422272
 33
0
  0
SOLID
  5
C6
100
AcDbEntity
  8
bottom
  6
ByBlock
 62
    0
370
   -2
100
AcDbTrace
 10
157.3
 20
520
 30
0
 11
154.8
 21
519.5837153422272
 31
0
 12
154.8
 22
520.4162846577728
 32
0
 13
154.8
 23
520.4162846577728
 33
0
  0
MTEXT
  5
C7
100
AcDbEntity
  8
bottom
  6
CONTINUOUS
 62
    0
370
   -2
100
AcDbMText
 10
153.65
 20
521.875
 30
0
 40
2.5
 41
4.027777777777933
 71
    5
 72
    1
  1
7,3
  7
STANDARD
210
0
220
0
230
1
 50
0
 73
    2
 44
1
  0
LINE
  5
C8
100
AcDbEntity
  8
bottom
  6
ByBlock
 62
    0
370
   -2
100
AcDbLine
 10
150
 20
523.425
 11
150
 21
518.75
  0
LINE
  5
C9
100
AcDbEntity
  8
bottom
  6
ByBlock
 62
    0
370
   -2
100
AcDbLine
 10
157.3
 20
523.425
 11
157.3
 21
518.75
  0
ENDBLK
  5
69
330
67
100
AcDbEntity
  8
0
100
AcDbBlockEnd
  0
BLOCK
  5
6B
330
6A
100
AcDbEntity
  8
0
100
AcDbBlockBegin
  2
*D12
 70
    1
 10
0
 20
0
  3
*D12
  1

  0
LINE
  5
CA
100
AcDbEntity
  8
middle
  6
ByBlock
 62
    0
370
   -2
100
AcDbLine
 10
-40
 20
534.05
 11
-40
 21
515
  0
SOLID
  5
CB
100
AcDbEntity
  8
middle
  6
ByBlock
 62
    0
370
   -2
100
AcDbTrace
 10
-40
 20
534.05
 30
0
 11
-39.58371534222716
 21
531.55
 31
0
 12
-40.41628465777284
 22
531.55
 32
0
 13
-40.41628465777284
 23
531.55
 33
0
  0
SOLID
  5
CC
100
AcDbEntity
  8
middle
  6
ByBlock
 62
    0
370
   -2
100
AcDbTrace
 10
-40
 20
515
 30
0
 11
-40.41628465777284
 21
517.5
 31
0
 12
-39.58371534222716
 22
517.5
 32
0
 13
-39.58371534222716
 23
517.5
 33
0
  0
MTEXT
  5
CD
100
AcDbEntity
  8
middle
  6
CONTINUOUS
 62
    0
370
   -2
100
AcDbMText
 10
-41.875
 20
524.525
 30
0
 40
2.5
 41
7.361111111111267
 71
    5
 72
    1
  1
19,05
  7
STANDARD
210
0
220
0
230
1
 50
90
 73
    2
 44
1
  0
LINE
  5
CE
100
AcDbEntity
  8
middle
  6
ByBlock
 62
    0
370
   -2
100
AcDbLine
 10
-30.62500000000002
 20
534.05
 11
-41.25
 21
534.05
  0
LINE
  5
CF
100
AcDbEntity
  8
middle
  6
ByBlock
 62
    0
370
   -2
100
AcDbLine
 10
-10.625
 20
515
 11
-41.25
 21
515
  0
ENDBLK
  5
6C
330
6A
100
AcDbEntity
  8
0
100
AcDbBlockEnd
  0
BLOCK
  5
6E
330
6D
100
AcDbEntity
  8
0
100
AcDbBlockBegin
  2
*D2
 70
    1
 10
0
 20
0
  3
*D2
  1

  0
LINE
  5
D0
100
AcDbEntity
  8
length
  6
ByBlock
 62
    0
370
   -2
100
AcDbLine
 10
-80
 20
208.9
 11
-80
 21
895
  0
SOLID
  5
D1
100
AcDbEntity
  8
length
  6
ByBlock
 62
    0
370
   -2
100
AcDbTrace
 10
-80
 20
208.9
 30
0
 11
-80.41628465777283
 21
211.4
 31
0
 12
-79.58371534222717
 22
211.4
 32
0
 13
-79.58371534222717
 23
211.4
 33
0
  0
SOLID
  5
D2
100
AcDbEntity
  8
length
  6
ByBlock
 62
    0
370
   -2
100
AcDbTrace
 10
-80
 20
895
 30
0
 11
-79.58371534222717
 21
892.5
 31
0
 12
-80.41628465777283
 22
892.5
 32
0
 13
-80.41628465777283
 23
892.5
 33
0
  0
MTEXT
  5
D3
100
AcDbEntity
  8
length
  6
CONTINUOUS
 62
    0
370
   -2
100
AcDbMText
 10
-81.875
 20
551.95
 30
0
 40
2.5
 41
7.361111111111422
 71
    5
 72
    1
  1
686,1
  7
STANDARD
210
0
220
0
230
1
 50
90
 73
    2
 44
1
  0
LINE
  5
D4
100
AcDbEntity
  8
length
  6
ByBlock
 62
    0
370
   -2
100
AcDbLine
 10
-0.625000000000042
 20
208.9
 11
-81.25
 21
208.9
  0
LINE
  5
D5
100
AcDbEntity
  8
length
  6
ByBlock
 62
    0
370
   -2
100
AcDbLine
 10
-0.625
 20
895
 11
-81.25
 21
895
  0
ENDBLK
  5
6F
330
6D
100
AcDbEntity
  8
0
100
AcDbBlockEnd
  0
BLOCK
  5
71
330
70
100
AcDbEntity
  8
0
100
AcDbBlockBegin
  2
*D18
 70
    1
 10
0
 20
0
  3
*D18
  1

  0
LINE
  5
D6
100
AcDbEntity
  8
bottom
  6
ByBlock
 62
    0
370
   -2
100
AcDbLine
 10
184.45
 20
465
 11
199.45
 21
465
  0
SOLID
  5
D7
100
AcDbEntity
  8
bottom
  6
ByBlock
 62
    0
370
   -2
100
AcDbTrace
 10
189.45
 20
465
 30
0
 11
186.95
 21
464.5837153422272
 31
0
 12
186.95
 22
465.4162846577728
 32
0
 13
186.95
 23
465.4162846577728
 33
0
  0
SOLID
  5
D8
100
AcDbEntity
  8
bottom
  6
ByBlock
 62
    0
370
   -2
100
AcDbTrace
 10
194.45
 20
465
 30
0
 11
196.95
 21
465.4162846577728
 31
0
 12
196.95
 22
464.5837153422272
 32
0
 13
196.95
 23
464.5837153422272
 33
0
  0
MTEXT
  5
D9
100
AcDbEntity
  8
bottom
  6
CONTINUOUS
 62
    0
370
   -2
100
AcDbMText
 10
191.95
 20
466.875
 30
0
 40
2.5
 41
1.111111111111266
 71
    5
 72
    1
  1
5
  7
STANDARD
210
0
220
0
230
1
 50
0
 73
    2
 44
1
  0
LINE
  5
DA
100
AcDbEntity
  8
bottom
  6
ByBlock
 62
    0
370
   -2
100
AcDbLine
 10
189.45
 20
469.375
 11
189.45
 21
463.75
  0
LINE
  5
DB
100
AcDbEntity
  8
bottom
  6
ByBlock
 62
    0
370
   -2
100
AcDbLine
 10
194.45
 20
469.375
 11
194.45
 21
463.75
  0
ENDBLK
  5
72
330
70
100
AcDbEntity
  8
0
100
AcDbBlockEnd
  0
BLOCK
  5
74
330
73
100
AcDbEntity
  8
0
100
AcDbBlockBegin
  2
*D14
 70
    1
 10
0
 20
0
  3
*D14
  1

  0
LINE
  5
DC
100
AcDbEntity
  8
pipe
  6
ByBlock
 62
    0
370
   -2
100
AcDbLine
 10
9.999999999999943
 20
552
 11
150
 21
552
  0
SOLID
  5
DD
100
AcDbEntity
  8
pipe
  6
ByBlock
 62
    0
370
   -2
100
AcDbTrace
 10
9.999999999999943
 20
552
 30
0
 11
12.49999999999994
 21
552.4162846577728
 31
0
 12
12.49999999999994
 22
551.5837153422272
 32
0
 13
12.49999999999994
 23
551.5837153422272
 33
0
  0
SOLID
  5
DE
100
AcDbEntity
  8
pipe
  6
ByBlock
 62
    0
370
   -2
100
AcDbTrace
 10
150
 20
552
 30
0
 11
147.5
 21
551.5837153422272
 31
0
 12
147.5
 22
552.4162846577728
 32
0
 13
147.5
 23
552.4162846577728
 33
0
  0
MTEXT
  5
DF
100
AcDbEntity
  8
pipe
  6
CONTINUOUS
 62
    0
370
   -2
100
AcDbMText
 10
79.99999999999997
 20
553.875
 30
0
 40
2.5
 41
4.722222222222222
 71
    5
 72
    1
  1
140
  7
STANDARD
210
0
220
0
230
1
 50
0
 73
    2
 44
1
  0
LINE
  5
E0
100
AcDbEntity
  8
pipe
  6
ByBlock
 62
    0
370
   -2
100
AcDbLine
 10
9.999999999999977
 20
541.675
 11
9.99999999999994
 21
553.25
  0
LINE
  5
E1
100
AcDbEntity
  8
pipe
  6
ByBlock
 62
    0
370
   -2
100
AcDbLine
 10
150
 20
541.675
 11
150
 21
553.25
  0
ENDBLK
  5
75
330
73
100
AcDbEntity
  8
0
100
AcDbBlockEnd
  0
BLOCK
  5
77
330
76
100
AcDbEntity
  8
0
100
AcDbBlockBegin
  2
*D4
 70
    1
 10
0
 20
0
  3
*D4
  1

  0
LINE
  5
E2
100
AcDbEntity
  8
bottom
  6
ByBlock
 62
    0
370
   -2
100
AcDbLine
 10
60
 20
178.1
 11
60
 21
225
  0
SOLID
  5
E3
100
AcDbEntity
  8
bottom
  6
ByBlock
 62
    0
370
   -2
100
AcDbTrace
 10
60
 20
178.1
 30
0
 11
59.58371534222716
 21
180.6
 31
0
 12
60.41628465777284
 22
180.6
 32
0
 13
60.41628465777284
 23
180.6
 33
0
  0
SOLID
  5
E4
100
AcDbEntity
  8
bottom
  6
ByBlock
 62
    0
370
   -2
100
AcDbTrace
 10
60
 20
225
 30
0
 11
60.41628465777284
 21
222.5
 31
0
 12
59.58371534222716
 22
222.5
 32
0
 13
59.58371534222716
 23
222.5
 33
0
  0
MTEXT
  5
E5
100
AcDbEntity
  8
bottom
  6
CONTINUOUS
 62
    0
370
   -2
100
AcDbMText
 10
58.125
 20
201.55
 30
0
 40
2.5
 41
6.250000000000156
 71
    5
 72
    1
  1
46,9
  7
STANDARD
210
0
220
0
230
1
 50
90
 73
    2
 44
1
  0
LINE
  5
E6
100
AcDbEntity
  8
bottom
  6
ByBlock
 62
    0
370
   -2
100
AcDbLine
 10
15.62499999999996
 20
178.1
 11
61.25
 21
178.1
  0
LINE
  5
E7
100
AcDbEntity
  8
bottom
  6
ByBlock
 62
    0
370
   -2
100
AcDbLine
 10
15.625
 20
225
 11
61.25
 21
225
  0
ENDBLK
  5
78
330
76
100
AcDbEntity
  8
0
100
AcDbBlockEnd
  0
BLOCK
  5
7A
330
79
100
AcDbEntity
  8
0
100
AcDbBlockBegin
  2
*D5
 70
    1
 10
0
 20
0
  3
*D5
  1

  0
LINE
  5
E8
100
AcDbEntity
  8
bottom
  6
ByBlock
 62
    0
370
   -2
100
AcDbLine
 10
40
 20
245
 11
40
 21
225
  0
SOLID
  5
E9
100
AcDbEntity
  8
bottom
  6
ByBlock
 62
    0
370
   -2
100
AcDbTrace
 10
40
 20
245
 30
0
 11
40.41628465777284
 21
242.5
 31
0
 12
39.58371534222716
 22
242.5
 32
0
 13
39.58371534222716
 23
242.5
 33
0
  0
SOLID
  5
EA
100
AcDbEntity
  8
bottom
  6
ByBlock
 62
    0
370
   -2
100
AcDbTrace
 10
40
 20
225
 30
0
 11
39.58371534222716
 21
227.5
 31
0
 12
40.41628465777284
 22
227.5
 32
0
 13
40.41628465777284
 23
227.5
 33
0
  0
MTEXT
  5
EB
100
AcDbEntity
  8
bottom
  6
CONTINUOUS
 62
    0
370
   -2
100
AcDbMText
 10
38.125
 20
235
 30
0
 40
2.5
 41
3.055555555555556
 71
    5
 72
    1
  1
20
  7
STANDARD
210
0
220
0
230
1
 50
90
 73
    2
 44
1
  0
LINE
  5
EC
100
AcDbEntity
  8
bottom
  6
ByBlock
 62
    0
370
   -2
100
AcDbLine
 10
7.625000000000001
 20
245
 11
41.25
 21
245
  0
LINE
  5
ED
100
AcDbEntity
  8
bottom
  6
ByBlock
 62
    0
370
   -2
100
AcDbLine
 10
7.625
 20
225
 11
41.25
 21
225
  0
ENDBLK
  5
7B
330
79
100
AcDbEntity
  8
0
100
AcDbBlockEnd
  0
BLOCK
  5
7D
330
7C
100
AcDbEntity
  8
0
100
AcDbBlockBegin
  2
*D13
 70
    1
 10
0
 20
0
  3
*D13
  1

  0
LINE
  5
EE
100
AcDbEntity
  8
middle
  6
ByBlock
 62
    0
370
   -2
100
AcDbLine
 10
-50.00000000000001
 20
515
 11
-50.00000000000001
 21
551.95
  0
SOLID
  5
EF
100
AcDbEntity
  8
middle
  6
ByBlock
 62
    0
370
   -2
100
AcDbTrace
 10
-50.00000000000001
 20
515
 30
0
 11
-50.41628465777285
 21
517.5
 31
0
 12
-49.58371534222717
 22
517.5
 32
0
 13
-49.58371534222717
 23
517.5
 33
0
  0
SOLID
  5
F0
100
AcDbEntity
  8
middle
  6
ByBlock
 62
    0
370
   -2
100
AcDbTrace
 10
-50.00000000000001
 20
551.95
 30
0
 11
-49.58371534222717
 21
549.45
 31
0
 12
-50.41628465777285
 22
549.45
 32
0
 13
-50.41628465777285
 23
549.45
 33
0
  0
MTEXT
  5
F1
100
AcDbEntity
  8
middle
  6
CONTINUOUS
 62
    0
370
   -2
100
AcDbMText
 10
-51.87500000000001
 20
533.475
 30
0
 40
2.5
 41
7.916666666667132
 71
    5
 72
    1
  1
36,95
  7
STANDARD
210
0
220
0
230
1
 50
90
 73
    2
 44
1
  0
LINE
  5
F2
100
AcDbEntity
  8
middle
  6
ByBlock
 62
    0
370
   -2
100
AcDbLine
 10
-10.625
 20
515
 11
-51.25000000000001
 21
515
  0
LINE
  5
F3
100
AcDbEntity
  8
middle
  6
ByBlock
 62
    0
370
   -2
100
AcDbLine
 10
-0.625000000000021
 20
551.95
 11
-51.25000000000001
 21
551.95
  0
ENDBLK
  5
7E
330
7C
100
AcDbEntity
  8
0
100
AcDbBlockEnd
  0
BLOCK
  5
80
330
7F
100
AcDbEntity
  8
0
100
AcDbBlockBegin
  2
*D10
 70
    1
 10
0
 20
0
  3
*D10
  1

  0
LINE
  5
F4
100
AcDbEntity
  8
middle
  6
ByBlock
 62
    0
370
   -2
100
AcDbLine
 10
40
 20
541.05
 11
40
 21
527.05
  0
SOLID
  5
F5
100
AcDbEntity
  8
middle
  6
ByBlock
 62
    0
370
   -2
100
AcDbTrace
 10
40
 20
541.05
 30
0
 11
40.41628465777284
 21
538.55
 31
0
 12
39.58371534222716
 22
538.55
 32
0
 13
39.58371534222716
 23
538.55
 33
0
  0
SOLID
  5
F6
100
AcDbEntity
  8
middle
  6
ByBlock
 62
    0
370
   -2
100
AcDbTrace
 10
40
 20
527.05
 30
0
 11
39.58371534222716
 21
529.55
 31
0
 12
40.41628465777284
 22
529.55
 32
0
 13
40.41628465777284
 23
529.55
 33
0
  0
MTEXT
  5
F7
100
AcDbEntity
  8
middle
  6
CONTINUOUS
 62
    0
370
   -2
100
AcDbMText
 10
38.125
 20
534.05
 30
0
 40
2.5
 41
2.777777777777778
 71
    5
 72
    1
  1
14
  7
STANDARD
210
0
220
0
230
1
 50
90
 73
    2
 44
1
  0
LINE
  5
F8
100
AcDbEntity
  8
middle
  6
ByBlock
 62
    0
370
   -2
100
AcDbLine
 10
30.62499999999998
 20
541.05
 11
41.25
 21
541.05
  0
LINE
  5
F9
100
AcDbEntity
  8
middle
  6
ByBlock
 62
    0
370
   -2
100
AcDbLine
 10
30.62499999999998
 20
527.05
 11
41.25
 21
527.05
  0
ENDBLK
  5
81
330
7F
100
AcDbEntity
  8
0
100
AcDbBlockEnd
  0
BLOCK
  5
83
330
82
100
AcDbEntity
  8
0
100
AcDbBlockBegin
  2
*D23
 70
    1
 10
0
 20
0
  3
*D23
  1

  0
LINE
  5
FA
100
AcDbEntity
  8
bottom
  6
ByBlock
 62
    0
370
   -2
100
AcDbLine
 10
152.3
 20
520
 11
167.3
 21
520
  0
SOLID
  5
FB
100
AcDbEntity
  8
bottom
  6
ByBlock
 62
    0
370
   -2
100
AcDbTrace
 10
157.3
 20
520
 30
0
 11
154.8
 21
519.5837153422272
 31
0
 12
154.8
 22
520.4162846577728
 32
0
 13
154.8
 23
520.4162846577728
 33
0
  0
SOLID
  5
FC
100
AcDbEntity
  8
bottom
  6
ByBlock
 62
    0
370
   -2
100
AcDbTrace
 10
162.3
 20
520
 30
0
 11
164.8
 21
520.4162846577728
 31
0
 12
164.8
 22
519.5837153422272
 32
0
 13
164.8
 23
519.5837153422272
 33
0
  0
MTEXT
  5
FD
100
AcDbEntity
  8
bottom
  6
CONTINUOUS
 62
    0
370
   -2
100
AcDbMText
 10
159.8
 20
521.875
 30
0
 40
2.5
 41
1.111111111111266
 71
    5
 72
    1
  1
5
  7
STANDARD
210
0
220
0
230
1
 50
0
 73
    2
 44
1
  0
LINE
  5
FE
100
AcDbEntity
  8
bottom
  6
ByBlock
 62
    0
370
   -2
100
AcDbLine
 10
157.3
 20
523.425
 11
157.3
 21
518.75
  0
LINE
  5
FF
100
AcDbEntity
  8
bottom
  6
ByBlock
 62
    0
370
   -2
100
AcDbLine
 10
162.3
 20
523.425
 11
162.3
 21
518.75
  0
ENDBLK
  5
84
330
82
100
AcDbEntity
  8
0
100
AcDbBlockEnd
  0
BLOCK
  5
86
330
85
100
AcDbEntity
  8
0
100
AcDbBlockBegin
  2
*D21
 70
    1
 10
0
 20
0
  3
*D21
  1

  0
LINE
  5
100
100
AcDbEntity
  8
bottom
  6
ByBlock
 62
    0
370
   -2
100
AcDbLine
 10
168
 20
544.05
 11
168
 21
524.05
  0
SOLID
  5
101
100
AcDbEntity
  8
bottom
  6
ByBlock
 62
    0
370
   -2
100
AcDbTrace
 10
168
 20
544.05
 30
0
 11
168.4162846577728
 21
541.55
 31
0
 12
167.5837153422272
 22
541.55
 32
0
 13
167.5837153422272
 23
541.55
 33
0
  0
SOLID
  5
102
100
AcDbEntity
  8
bottom
  6
ByBlock
 62
    0
370
   -2
100
AcDbTrace
 10
168
 20
524.05
 30
0
 11
167.5837153422272
 21
526.55
 31
0
 12
168.4162846577728
 22
526.55
 32
0
 13
168.4162846577728
 23
526.55
 33
0
  0
MTEXT
  5
103
100
AcDbEntity
  8
bottom
  6
CONTINUOUS
 62
    0
370
   -2
100
AcDbMText
 10
166.125
 20
534.05
 30
0
 40
2.5
 41
3.055555555555556
 71
    5
 72
    1
  1
20
  7
STANDARD
210
0
220
0
230
1
 50
90
 73
    2
 44
1
  0
LINE
  5
104
100
AcDbEntity
  8
bottom
  6
ByBlock
 62
    0
370
   -2
100
AcDbLine
 10
162.925
 20
544.05
 11
169.25
 21
544.05
  0
LINE
  5
105
100
AcDbEntity
  8
bottom
  6
ByBlock
 62
    0
370
   -2
100
AcDbLine
 10
162.925
 20
524.05
 11
169.25
 21
524.05
  0
ENDBLK
  5
87
330
85
100
AcDbEntity
  8
0
100
AcDbBlockEnd
  0
BLOCK
  5
89
330
88
100
AcDbEntity
  8
0
100
AcDbBlockBegin
  2
*D6
 70
    1
 10
0
 20
0
  3
*D6
  1

  0
LINE
  5
106
100
AcDbEntity
  8
bottom
  6
ByBlock
 62
    0
370
   -2
100
AcDbLine
 10
30
 20
208.9
 11
30
 21
178.1
  0
SOLID
  5
107
100
AcDbEntity
  8
bottom
  6
ByBlock
 62
    0
370
   -2
100
AcDbTrace
 10
30
 20
208.9
 30
0
 11
30.41628465777285
 21
206.4
 31
0
 12
29.58371534222716
 22
206.4
 32
0
 13
29.58371534222716
 23
206.4
 33
0
  0
SOLID
  5
108
100
AcDbEntity
  8
bottom
  6
ByBlock
 62
    0
370
   -2
100
AcDbTrace
 10
30
 20
178.1
 30
0
 11
29.58371534222716
 21
180.6
 31
0
 12
30.41628465777284
 22
180.6
 32
0
 13
30.41628465777284
 23
180.6
 33
0
  0
MTEXT
  5
109
100
AcDbEntity
  8
bottom
  6
CONTINUOUS
 62
    0
370
   -2
100
AcDbMText
 10
28.125
 20
193.5
 30
0
 40
2.5
 41
5.972222222222378
 71
    5
 72
    1
  1
30,8
  7
STANDARD
210
0
220
0
230
1
 50
90
 73
    2
 44
1
  0
LINE
  5
10A
100
AcDbEntity
  8
bottom
  6
ByBlock
 62
    0
370
   -2
100
AcDbLine
 10
0.624999999999958
 20
208.9
 11
31.25
 21
208.9
  0
LINE
  5
10B
100
AcDbEntity
  8
bottom
  6
ByBlock
 62
    0
370
   -2
100
AcDbLine
 10
15.62499999999996
 20
178.1
 11
31.25
 21
178.1
  0
ENDBLK
  5
8A
330
88
100
AcDbEntity
  8
0
100
AcDbBlockEnd
  0
BLOCK
  5
8C
330
8B
100
AcDbEntity
  8
0
100
AcDbBlockBegin
  2
*D19
 70
    1
 10
0
 20
0
  3
*D19
  1

  0
LINE
  5
10C
100
AcDbEntity
  8
bottom
  6
ByBlock
 62
    0
370
   -2
100
AcDbLine
 10
180
 20
465
 11
160
 21
465
  0
SOLID
  5
10D
100
AcDbEntity
  8
bottom
  6
ByBlock
 62
    0
370
   -2
100
AcDbTrace
 10
180
 20
465
 30
0
 11
177.5
 21
464.5837153422272
 31
0
 12
177.5
 22
465.4162846577728
 32
0
 13
177.5
 23
465.4162846577728
 33
0
  0
SOLID
  5
10E
100
AcDbEntity
  8
bottom
  6
ByBlock
 62
    0
370
   -2
100
AcDbTrace
 10
160
 20
465
 30
0
 11
162.5
 21
465.4162846577728
 31
0
 12
162.5
 22
464.5837153422272
 32
0
 13
162.5
 23
464.5837153422272
 33
0
  0
MTEXT
  5
10F
100
AcDbEntity
  8
bottom
  6
CONTINUOUS
 62
    0
370
   -2
100
AcDbMText
 10
170
 20
466.875
 30
0
 40
2.5
 41
3.055555555555556
 71
    5
 72
    1
  1
20
  7
STANDARD
210
0
220
0
230
1
 50
360
 73
    2
 44
1
  0
LINE
  5
110
100
AcDbEntity
  8
bottom
  6
ByBlock
 62
    0
370
   -2
100
AcDbLine
 10
180
 20
469.375
 11
180
 21
463.75
  0
LINE
  5
111
100
AcDbEntity
  8
bottom
  6
ByBlock
 62
    0
370
   -2
100
AcDbLine
 10
160
 20
472.375
 11
160
 21
463.75
  0
ENDBLK
  5
8D
330
8B
100
AcDbEntity
  8
0
100
AcDbBlockEnd
  0
BLOCK
  5
8F
330
8E
100
AcDbEntity
  8
0
100
AcDbBlockBegin
  2
*D20
 70
    1
 10
0
 20
0
  3
*D20
  1

  0
LINE
  5
112
100
AcDbEntity
  8
bottom
  6
ByBlock
 62
    0
370
   -2
100
AcDbLine
 10
200
 20
490
 11
200
 21
470
  0
SOLID
  5
113
100
AcDbEntity
  8
bottom
  6
ByBlock
 62
    0
370
   -2
100
AcDbTrace
 10
200
 20
490
 30
0
 11
200.4162846577728
 21
487.5
 31
0
 12
199.5837153422272
 22
487.5
 32
0
 13
199.5837153422272
 23
487.5
 33
0
  0
SOLID
  5
114
100
AcDbEntity
  8
bottom
  6
ByBlock
 62
    0
370
   -2
100
AcDbTrace
 10
200
 20
470
 30
0
 11
199.5837153422272
 21
472.5
 31
0
 12
200.4162846577728
 22
472.5
 32
0
 13
200.4162846577728
 23
472.5
 33
0
  0
MTEXT
  5
115
100
AcDbEntity
  8
bottom
  6
CONTINUOUS
 62
    0
370
   -2
100
AcDbMText
 10
198.125
 20
480
 30
0
 40
2.5
 41
3.055555555555556
 71
    5
 72
    1
  1
20
  7
STANDARD
210
0
220
0
230
1
 50
90
 73
    2
 44
1
  0
LINE
  5
116
100
AcDbEntity
  8
bottom
  6
ByBlock
 62
    0
370
   -2
100
AcDbLine
 10
195.075
 20
490
 11
201.25
 21
490
  0
LINE
  5
117
100
AcDbEntity
  8
bottom
  6
ByBlock
 62
    0
370
   -2
100
AcDbLine
 10
195.075
 20
470
 11
201.25
 21
470
  0
ENDBLK
  5
90
330
8E
100
AcDbEntity
  8
0
100
AcDbBlockEnd
  0
BLOCK
  5
92
330
91
100
AcDbEntity
  8
0
100
AcDbBlockBegin
  2
*D11
 70
    1
 10
0
 20
0
  3
*D11
  1

  0
LINE
  5
118
100
AcDbEntity
  8
middle
  6
ByBlock
 62
    0
370
   -2
100
AcDbLine
 10
49.99999999999999
 20
565
 11
49.99999999999999
 21
585
  0
SOLID
  5
119
100
AcDbEntity
  8
middle
  6
ByBlock
 62
    0
370
   -2
100
AcDbTrace
 10
49.99999999999999
 20
565
 30
0
 11
49.58371534222715
 21
567.5
 31
0
 12
50.41628465777283
 22
567.5
 32
0
 13
50.41628465777283
 23
567.5
 33
0
  0
SOLID
  5
11A
100
AcDbEntity
  8
middle
  6
ByBlock
 62
    0
370
   -2
100
AcDbTrace
 10
49.99999999999999
 20
585
 30
0
 11
50.41628465777283
 21
582.5
 31
0
 12
49.58371534222715
 22
582.5
 32
0
 13
49.58371534222715
 23
582.5
 33
0
  0
MTEXT
  5
11B
100
AcDbEntity
  8
middle
  6
CONTINUOUS
 62
    0
370
   -2
100
AcDbMText
 10
48.12499999999999
 20
575
 30
0
 40
2.5
 41
3.055555555555556
 71
    5
 72
    1
  1
20
  7
STANDARD
210
0
220
0
230
1
 50
90
 73
    2
 44
1
  0
LINE
  5
11C
100
AcDbEntity
  8
middle
  6
ByBlock
 62
    0
370
   -2
100
AcDbLine
 10
10.625
 20
565
 11
51.24999999999999
 21
565
  0
LINE
  5
11D
100
AcDbEntity
  8
middle
  6
ByBlock
 62
    0
370
   -2
100
AcDbLine
 10
7.624999999999981
 20
585
 11
51.24999999999999
 21
585
  0
ENDBLK
  5
93
330
91
100
AcDbEntity
  8
0
100
AcDbBlockEnd
  0
BLOCK
  5
95
330
94
100
AcDbEntity
  8
0
100
AcDbBlockBegin
  2
*D9
 70
    1
 10
0
 20
0
  3
*D9
  1

  0
LINE
  5
11E
100
AcDbEntity
  8
middle
  6
ByBlock
 62
    0
370
   -2
100
AcDbLine
 10
50
 20
515
 11
50
 21
565
  0
SOLID
  5
11F
100
AcDbEntity
  8
middle
  6
ByBlock
 62
    0
370
   -2
100
AcDbTrace
 10
50
 20
515
 30
0
 11
49.58371534222716
 21
517.5
 31
0
 12
50.41628465777284
 22
517.5
 32
0
 13
50.41628465777284
 23
517.5
 33
0
  0
SOLID
  5
120
100
AcDbEntity
  8
middle
  6
ByBlock
 62
    0
370
   -2
100
AcDbTrace
 10
50
 20
565
 30
0
 11
50.41628465777284
 21
562.5
 31
0
 12
49.58371534222716
 22
562.5
 32
0
 13
49.58371534222716
 23
562.5
 33
0
  0
MTEXT
  5
121
100
AcDbEntity
  8
middle
  6
CONTINUOUS
 62
    0
370
   -2
100
AcDbMText
 10
48.125
 20
540
 30
0
 40
2.5
 41
3.055555555555711
 71
    5
 72
    1
  1
50
  7
STANDARD
210
0
220
0
230
1
 50
90
 73
    2
 44
1
  0
LINE
  5
122
100
AcDbEntity
  8
middle
  6
ByBlock
 62
    0
370
   -2
100
AcDbLine
 10
10.625
 20
515
 11
51.25
 21
515
  0
LINE
  5
123
100
AcDbEntity
  8
middle
  6
ByBlock
 62
    0
370
   -2
100
AcDbLine
 10
10.625
 20
565
 11
51.25
 21
565
  0
ENDBLK
  5
96
330
94
100
AcDbEntity
  8
0
100
AcDbBlockEnd
  0
BLOCK
  5
98
330
97
100
AcDbEntity
  8
0
100
AcDbBlockBegin
  2
*D3
 70
    1
 10
0
 20
0
  3
*D3
  1

  0
LINE
  5
124
100
AcDbEntity
  8
bottom
  6
ByBlock
 62
    0
370
   -2
100
AcDbLine
 10
40
 20
168.1
 11
40
 21
178.1
  0
SOLID
  5
125
100
AcDbEntity
  8
bottom
  6
ByBlock
 62
    0
370
   -2
100
AcDbTrace
 10
40
 20
168.1
 30
0
 11
39.58371534222716
 21
170.6
 31
0
 12
40.41628465777284
 22
170.6
 32
0
 13
40.41628465777284
 23
170.6
 33
0
  0
SOLID
  5
126
100
AcDbEntity
  8
bottom
  6
ByBlock
 62
    0
370
   -2
100
AcDbTrace
 10
40
 20
178.1
 30
0
 11
40.41628465777284
 21
175.6
 31
0
 12
39.58371534222716
 22
175.6
 32
0
 13
39.58371534222716
 23
175.6
 33
0
  0
MTEXT
  5
127
100
AcDbEntity
  8
bottom
  6
CONTINUOUS
 62
    0
370
   -2
100
AcDbMText
 10
38.125
 20
173.1
 30
0
 40
2.5
 41
2.5
 71
    5
 72
    1
  1
10
  7
STANDARD
210
0
220
0
230
1
 50
90
 73
    2
 44
1
  0
LINE
  5
128
100
AcDbEntity
  8
bottom
  6
ByBlock
 62
    0
370
   -2
100
AcDbLine
 10
25.62499999999996
 20
168.1
 11
41.25
 21
168.1
  0
LINE
  5
129
100
AcDbEntity
  8
bottom
  6
ByBlock
 62
    0
370
   -2
100
AcDbLine
 10
25.62499999999996
 20
178.1
 11
41.25
 21
178.1
  0
ENDBLK
  5
99
330
97
100
AcDbEntity
  8
0
100
AcDbBlockEnd
  0
ENDSEC
  0
SECTION
  2
ENTITIES
  0
LINE
  5
12A
100
AcDbEntity
  8
0
  6
ByLayer
 62
  256
370
   -1
100
AcDbLine
 10
-15
 20
900
 11
15
 21
900
  0
LINE
  5
12B
100
AcDbEntity
  8
0
  6
ByLayer
 62
  256
370
   -1
100
AcDbLine
 10
-15
 20
900
 11
-25
 21
900
  0
LINE
  5
12C
100
AcDbEntity
  8
0
  6
ByLayer
 62
  256
370
   -1
100
AcDbLine
 10
15
 20
900
 11
25
 21
900
  0
LINE
  5
12D
100
AcDbEntity
  8
0
  6
ByLayer
 62
  256
370
   -1
100
AcDbLine
 10
-25
 20
900
 11
-25
 21
890
  0
LINE
  5
12E
100
AcDbEntity
  8
0
  6
ByLayer
 62
  256
370
   -1
100
AcDbLine
 10
25
 20
900
 11
25
 21
890
  0
LINE
  5
12F
100
AcDbEntity
  8
0
  6
ByLayer
 62
  256
370
   -1
100
AcDbLine
 10
25
 20
890
 11
15
 21
890
  0
LINE
  5
130
100
AcDbEntity
  8
0
  6
ByLayer
 62
  256
370
   -1
100
AcDbLine
 10
-25
 20
890
 11
-15
 21
890
  0
LINE
  5
131
100
AcDbEntity
  8
0
  6
ByLayer
 62
  256
370
   -1
100
AcDbLine
 10
-15
 20
890
 11
-15
 21
885
  0
LINE
  5
132
100
AcDbEntity
  8
0
  6
ByLayer
 62
  256
370
   -1
100
AcDbLine
 10
15
 20
890
 11
15
 21
885
  0
CIRCLE
  5
133
100
AcDbEntity
  8
0
  6
ByLayer
 62
  256
370
   -1
100
AcDbCircle
 10
0
 20
895
 40
5
  0
LINE
  5
134
100
AcDbEntity
  8
0
  6
ByLayer
 62
  256
370
   -1
100
AcDbLine
 10
-7
 20
885
 11
-7.000000000000001
 21
865
  0
LINE
  5
135
100
AcDbEntity
  8
0
  6
ByLayer
 62
  256
370
   -1
100
AcDbLine
 10
7
 20
885
 11
6.999999999999999
 21
865
  0
LINE
  5
136
100
AcDbEntity
  8
0
  6
ByLayer
 62
  256
370
   -1
100
AcDbLine
 10
-15
 20
885
 11
-7
 21
885
  0
LINE
  5
137
100
AcDbEntity
  8
0
  6
ByLayer
 62
  256
370
   -1
100
AcDbLine
 10
7
 20
885
 11
15
 21
885
  0
LINE
  5
138
100
AcDbEntity
  8
0
  6
ByLayer
 62
  256
370
   -1
100
AcDbLine
 10
-7.000000000000001
 20
865
 11
6.999999999999999
 21
865
  0
LINE
  5
139
100
AcDbEntity
  8
length
  6
ByLayer
 62
  256
370
   -1
100
AcDbLine
 10
0
 20
895
 11
-2.210181310761185e-14
 21
534.05
  0
LINE
  5
13A
100
AcDbEntity
  8
length
  6
ByLayer
 62
  256
370
   -1
100
AcDbLine
 10
-25
 20
895
 11
25
 21
895
  0
LINE
  5
13B
100
AcDbEntity
  8
length
  6
ByLayer
 62
  256
370
   -1
100
AcDbLine
 10
0
 20
895
 11
-2.100575422237498e-14
 21
551.95
  0
LINE
  5
13C
100
AcDbEntity
  8
pipe
  6
ByLayer
 62
  256
370
   -1
100
AcDbLine
 10
-7
 20
885
 11
-7.00000000000002
 21
565
  0
LINE
  5
13D
100
AcDbEntity
  8
pipe
  6
ByLayer
 62
  256
370
   -1
100
AcDbLine
 10
7
 20
885
 11
6.99999999999998
 21
565
  0
LINE
  5
13E
100
AcDbEntity
  8
0
  6
ByLayer
 62
  256
370
   -1
100
AcDbLine
 10
-10
 20
565
 11
-10.00000000000002
 21
541.05
  0
LINE
  5
13F
100
AcDbEntity
  8
0
  6
ByLayer
 62
  256
370
   -1
100
AcDbLine
 10
10
 20
565
 11
9.999999999999979
 21
541.05
  0
CIRCLE
  5
140
100
AcDbEntity
  8
0
  6
ByLayer
 62
  256
370
   -1
100
AcDbCircle
 10
-2.100575422237498e-14
 20
551.95
 40
7
  0
LINE
  5
141
100
AcDbEntity
  8
0
  6
ByLayer
 62
  256
370
   -1
100
AcDbLine
 10
-7.00000000000002
 20
565
 11
-7.000000000000019
 21
585
  0
LINE
  5
142
100
AcDbEntity
  8
0
  6
ByLayer
 62
  256
370
   -1
100
AcDbLine
 10
6.99999999999998
 20
565
 11
6.999999999999981
 21
585
  0
LINE
  5
143
100
AcDbEntity
  8
0
  6
ByLayer
 62
  256
370
   -1
100
AcDbLine
 10
-7.000000000000019
 20
585
 11
6.999999999999981
 21
585
  0
LINE
  5
144
100
AcDbEntity
  8
0
  6
ByLayer
 62
  256
370
   -1
100
AcDbLine
 10
-10
 20
565
 11
-7.00000000000002
 21
565
  0
LINE
  5
145
100
AcDbEntity
  8
0
  6
ByLayer
 62
  256
370
   -1
100
AcDbLine
 10
10
 20
565
 11
6.99999999999998
 21
565
  0
LINE
  5
146
100
AcDbEntity
  8
length
  6
ByLayer
 62
  256
370
   -1
100
AcDbLine
 10
-30.00000000000002
 20
534.05
 11
29.99999999999998
 21
534.05
  0
LINE
  5
147
100
AcDbEntity
  8
0
  6
ByLayer
 62
  256
370
   -1
100
AcDbLine
 10
-30.00000000000002
 20
527.05
 11
-30.00000000000002
 21
541.05
  0
LINE
  5
148
100
AcDbEntity
  8
0
  6
ByLayer
 62
  256
370
   -1
100
AcDbLine
 10
29.99999999999998
 20
527.05
 11
29.99999999999998
 21
541.05
  0
LINE
  5
149
100
AcDbEntity
  8
0
  6
ByLayer
 62
  256
370
   -1
100
AcDbLine
 10
-30.00000000000002
 20
541.05
 11
-10.00000000000002
 21
541.05
  0
LINE
  5
14A
100
AcDbEntity
  8
0
  6
ByLayer
 62
  256
370
   -1
100
AcDbLine
 10
9.999999999999979
 20
541.05
 11
29.99999999999998
 21
541.05
  0
LINE
  5
14B
100
AcDbEntity
  8
0
  6
ByLayer
 62
  256
370
   -1
100
AcDbLine
 10
-30.00000000000002
 20
527.05
 11
-10.00000000000002
 21
527.05
  0
LINE
  5
14C
100
AcDbEntity
  8
0
  6
ByLayer
 62
  256
370
   -1
100
AcDbLine
 10
29.99999999999998
 20
527.05
 11
9.999999999999979
 21
527.05
  0
LINE
  5
14D
100
AcDbEntity
  8
0
  6
ByLayer
 62
  256
370
   -1
100
AcDbLine
 10
-10.00000000000002
 20
527.05
 11
-10
 21
515
  0
LINE
  5
14E
100
AcDbEntity
  8
0
  6
ByLayer
 62
  256
370
   -1
100
AcDbLine
 10
10
 20
527
 11
10
 21
515
  0
LINE
  5
14F
100
AcDbEntity
  8
0
  6
ByLayer
 62
  256
370
   -1
100
AcDbLine
 10
10
 20
515
 11
7
 21
515
  0
LINE
  5
150
100
AcDbEntity
  8
0
  6
ByLayer
 62
  256
370
   -1
100
AcDbLine
 10
-10
 20
515
 11
-7
 21
515
  0
LINE
  5
151
100
AcDbEntity
  8
0
  6
ByLayer
 62
  256
370
   -1
100
AcDbLine
 10
-7
 20
515
 11
-7.000000000000001
 21
495
  0
LINE
  5
152
100
AcDbEntity
  8
0
  6
ByLayer
 62
  256
370
   -1
100
AcDbLine
 10
7
 20
515
 11
6.999999999999999
 21
495
  0
LINE
  5
153
100
AcDbEntity
  8
0
  6
ByLayer
 62
  256
370
   -1
100
AcDbLine
 10
-7.000000000000001
 20
495
 11
6.999999999999999
 21
495
  0
LINE
  5
154
100
AcDbEntity
  8
length
  6
ByLayer
 62
  256
370
   -1
100
AcDbLine
 10
-2.210181310761185e-14
 20
534.05
 11
-4.420362621522371e-14
 21
173.1
  0
LINE
  5
155
100
AcDbEntity
  8
length
  6
ByLayer
 62
  256
370
   -1
100
AcDbLine
 10
-25.00000000000004
 20
173.1
 11
24.99999999999996
 21
173.1
  0
LINE
  5
156
100
AcDbEntity
  8
0
  6
ByLayer
 62
  256
370
   -1
100
AcDbLine
 10
-25.00000000000004
 20
168.1
 11
-25.00000000000004
 21
178.1
  0
LINE
  5
157
100
AcDbEntity
  8
0
  6
ByLayer
 62
  256
370
   -1
100
AcDbLine
 10
24.99999999999996
 20
168.1
 11
24.99999999999996
 21
178.1
  0
LINE
  5
158
100
AcDbEntity
  8
0
  6
ByLayer
 62
  256
370
   -1
100
AcDbLine
 10
24.99999999999996
 20
178.1
 11
14.99999999999996
 21
178.1
  0
LINE
  5
159
100
AcDbEntity
  8
0
  6
ByLayer
 62
  256
370
   -1
100
AcDbLine
 10
-25.00000000000004
 20
178.1
 11
-15.00000000000004
 21
178.1
  0
LINE
  5
15A
100
AcDbEntity
  8
0
  6
ByLayer
 62
  256
370
   -1
100
AcDbLine
 10
-25.00000000000004
 20
168.1
 11
24.99999999999996
 21
168.1
  0
DIMENSION
  5
15B
100
AcDbEntity
  8
length
  6
ByLayer
 62
  256
370
   -1
100
AcDbDimension
  2
*D1
 10
-100
 20
173.1
 30
0
 11
-101.875
 21
534.0500000000001
 31
0
 70
   32
 71
    5
  3
Standard
 53
0
210
0
220
0
230
1
100
AcDbAlignedDimension
 13
-25
 23
895
 33
0
 14
-25.00000000000004
 24
173.1
 34
0
 50
90
100
AcDbRotatedDimension
  0
LINE
  5
15C
100
AcDbEntity
  8
length
  6
ByLayer
 62
  256
370
   -1
100
AcDbLine
 10
-2.100575422237498e-14
 20
551.95
 11
-4.201150844474995e-14
 21
208.9
  0
CIRCLE
  5
15D
100
AcDbEntity
  8
0
  6
ByLayer
 62
  256
370
   -1
100
AcDbCircle
 10
-4.201150844474995e-14
 20
208.9
 40
5
  0
LINE
  5
15E
100
AcDbEntity
  8
0
  6
ByLayer
 62
  256
370
   -1
100
AcDbLine
 10
-15.00000000000004
 20
178.1
 11
-15
 21
225
  0
LINE
  5
15F
100
AcDbEntity
  8
0
  6
ByLayer
 62
  256
370
   -1
100
AcDbLine
 10
-15
 20
225
 11
-7
 21
225
  0
LINE
  5
160
100
AcDbEntity
  8
0
  6
ByLayer
 62
  256
370
   -1
100
AcDbLine
 10
15
 20
225
 11
7
 21
225
  0
LINE
  5
161
100
AcDbEntity
  8
0
  6
ByLayer
 62
  256
370
   -1
100
AcDbLine
 10
7
 20
225
 11
7.000000000000001
 21
245
  0
LINE
  5
162
100
AcDbEntity
  8
0
  6
ByLayer
 62
  256
370
   -1
100
AcDbLine
 10
-7
 20
225
 11
-6.999999999999999
 21
245
  0
LINE
  5
163
100
AcDbEntity
  8
0
  6
ByLayer
 62
  256
370
   -1
100
AcDbLine
 10
-6.999999999999999
 20
245
 11
7.000000000000001
 21
245
  0
LINE
  5
164
100
AcDbEntity
  8
pipe
  6
ByLayer
 62
  256
370
   -1
100
AcDbLine
 10
7
 20
225
 11
7
 21
515
  0
LINE
  5
165
100
AcDbEntity
  8
pipe
  6
ByLayer
 62
  256
370
   -1
100
AcDbLine
 10
-7
 20
515
 11
-7
 21
225
  0
DIMENSION
  5
166
100
AcDbEntity
  8
length
  6
ByLayer
 62
  256
370
   -1
100
AcDbDimension
  2
*D2
 10
-80
 20
895
 30
0
 11
-81.875
 21
551.95
 31
0
 70
   32
 71
    5
  3
Standard
 53
0
210
0
220
0
230
1
100
AcDbAlignedDimension
 13
-4.201150844474995e-14
 23
208.9
 33
0
 14
0
 24
895
 34
0
 50
90
100
AcDbRotatedDimension
  0
DIMENSION
  5
167
100
AcDbEntity
  8
bottom
  6
ByLayer
 62
  256
370
   -1
100
AcDbDimension
  2
*D3
 10
40
 20
178.1
 30
0
 11
38.125
 21
173.1
 31
0
 70
   32
 71
    5
  3
Standard
 53
0
210
0
220
0
230
1
100
AcDbAlignedDimension
 13
24.99999999999996
 23
168.1
 33
0
 14
24.99999999999996
 24
178.1
 34
0
 50
90
100
AcDbRotatedDimension
  0
DIMENSION
  5
168
100
AcDbEntity
  8
bottom
  6
ByLayer
 62
  256
370
   -1
100
AcDbDimension
  2
*D4
 10
60
 20
225
 30
0
 11
58.125
 21
201.55
 31
0
 70
   32
 71
    5
  3
Standard
 53
0
210
0
220
0
230
1
100
AcDbAlignedDimension
 13
14.99999999999996
 23
178.1
 33
0
 14
15
 24
225
 34
0
 50
90
100
AcDbRotatedDimension
  0
DIMENSION
  5
169
100
AcDbEntity
  8
bottom
  6
ByLayer
 62
  256
370
   -1
100
AcDbDimension
  2
*D5
 10
40
 20
225
 30
0
 11
38.125
 21
235
 31
0
 70
   32
 71
    5
  3
Standard
 53
0
210
0
220
0
230
1
100
AcDbAlignedDimension
 13
7.000000000000001
 23
245
 33
0
 14
7
 24
225
 34
0
 50
90
100
AcDbRotatedDimension
  0
LINE
  5
16A
100
AcDbEntity
  8
bottom
  6
ByLayer
 62
  256
370
   -1
100
AcDbLine
 10
14.99999999999996
 20
178.1
 11
15
 21
225
  0
DIMENSION
  5
16B
100
AcDbEntity
  8
bottom
  6
ByLayer
 62
  256
370
   -1
100
AcDbDimension
  2
*D6
 10
30
 20
178.1
 30
0
 11
28.125
 21
193.5
 31
0
 70
   32
 71
    5
  3
Standard
 53
0
210
0
220
0
230
1
100
AcDbAlignedDimension
 13
-4.201150844474995e-14
 23
208.9
 33
0
 14
14.99999999999996
 24
178.1
 34
0
 50
90
100
AcDbRotatedDimension
  0
LINE
  5
16C
100
AcDbEntity
  8
0
  6
ByLayer
 62
  256
370
   -1
100
AcDbLine
 10
15
 20
225
 11
14.99999999999996
 21
178.1
  0
DIMENSION
  5
16D
100
AcDbEntity
  8
0
  6
ByLayer
 62
  256
370
   -1
100
AcDbDimension
  2
*D7
 10
24.99999999999996
 20
225
 30
0
 11
24.99999999999996
 21
226.875
 31
0
 70
   32
 71
    5
 72
    0
  3
Standard
 53
0
210
0
220
0
230
1
100
AcDbAlignedDimension
 13
15
 23
225
 33
0
 14
15
 24
225
 34
0
 50
90
100
AcDbRotatedDimension
  0
DIMENSION
  5
16E
100
AcDbEntity
  8
middle
  6
ByLayer
 62
  256
370
   -1
100
AcDbDimension
  2
*D8
 10
50
 20
515
 30
0
 11
48.125
 21
505
 31
0
 70
   32
 71
    5
 72
    0
  3
Standard
 53
0
210
0
220
0
230
1
100
AcDbAlignedDimension
 13
6.999999999999999
 23
495
 33
0
 14
10
 24
515
 34
0
 50
90
100
AcDbRotatedDimension
  0
DIMENSION
  5
16F
100
AcDbEntity
  8
middle
  6
ByLayer
 62
  256
370
   -1
100
AcDbDimension
  2
*D9
 10
50
 20
565
 30
0
 11
48.125
 21
540
 31
0
 70
   32
 71
    5
 72
    0
  3
Standard
 53
0
210
0
220
0
230
1
100
AcDbAlignedDimension
 13
10
 23
515
 33
0
 14
10
 24
565
 34
0
 50
90
100
AcDbRotatedDimension
  0
DIMENSION
  5
170
100
AcDbEntity
  8
middle
  6
ByLayer
 62
  256
370
   -1
100
AcDbDimension
  2
*D10
 10
40
 20
527.05
 30
0
 11
38.125
 21
534.05
 31
0
 70
   32
 71
    5
 72
    0
  3
Standard
 53
0
210
0
220
0
230
1
100
AcDbAlignedDimension
 13
29.99999999999998
 23
541.05
 33
0
 14
29.99999999999998
 24
527.05
 34
0
 50
90
100
AcDbRotatedDimension
  0
DIMENSION
  5
171
100
AcDbEntity
  8
middle
  6
ByLayer
 62
  256
370
   -1
100
AcDbDimension
  2
*D11
 10
49.99999999999999
 20
585
 30
0
 11
48.12499999999999
 21
575
 31
0
 70
   32
 71
    5
 72
    0
  3
Standard
 53
0
210
0
220
0
230
1
100
AcDbAlignedDimension
 13
10
 23
565
 33
0
 14
6.999999999999981
 24
585
 34
0
 50
90
100
AcDbRotatedDimension
  0
DIMENSION
  5
172
100
AcDbEntity
  8
middle
  6
ByLayer
 62
  256
370
   -1
100
AcDbDimension
  2
*D12
 10
-40
 20
515
 30
0
 11
-41.875
 21
524.525
 31
0
 70
   32
 71
    5
 72
    0
  3
Standard
 53
0
210
0
220
0
230
1
100
AcDbAlignedDimension
 13
-30.00000000000002
 23
534.05
 33
0
 14
-10
 24
515
 34
0
 50
90
100
AcDbRotatedDimension
  0
DIMENSION
  5
173
100
AcDbEntity
  8
middle
  6
ByLayer
 62
  256
370
   -1
100
AcDbDimension
  2
*D13
 10
-50.00000000000001
 20
551.95
 30
0
 11
-51.87500000000001
 21
533.475
 31
0
 70
   32
 71
    5
 72
    0
  3
Standard
 53
0
210
0
220
0
230
1
100
AcDbAlignedDimension
 13
-10
 23
515
 33
0
 14
-2.100575422237498e-14
 24
551.95
 34
0
 50
90
100
AcDbRotatedDimension
  0
LINE
  5
174
100
AcDbEntity
  8
length
  6
ByLayer
 62
  256
370
   -1
100
AcDbLine
 10
-2.210181310761185e-14
 20
534.05
 11
157.3
 21
534.05
  0
LINE
  5
175
100
AcDbEntity
  8
0
  6
ByLayer
 62
  256
370
   -1
100
AcDbLine
 10
157.3
 20
544.05
 11
162.3
 21
544.05
  0
LINE
  5
176
100
AcDbEntity
  8
0
  6
ByLayer
 62
  256
370
   -1
100
AcDbLine
 10
157.3
 20
524.05
 11
162.3
 21
524.05
  0
LINE
  5
177
100
AcDbEntity
  8
0
  6
ByLayer
 62
  256
370
   -1
100
AcDbLine
 10
162.3
 20
544.05
 11
162.3
 21
524.05
  0
LINE
  5
178
100
AcDbEntity
  8
0
  6
ByLayer
 62
  256
370
   -1
100
AcDbLine
 10
157.3
 20
544.05
 11
150
 21
544.05
  0
LINE
  5
179
100
AcDbEntity
  8
0
  6
ByLayer
 62
  256
370
   -1
100
AcDbLine
 10
157.3
 20
524.05
 11
150
 21
524.05
  0
LINE
  5
17A
100
AcDbEntity
  8
0
  6
ByLayer
 62
  256
370
   -1
100
AcDbLine
 10
150
 20
544.05
 11
150
 21
541.05
  0
LINE
  5
17B
100
AcDbEntity
  8
0
  6
ByLayer
 62
  256
370
   -1
100
AcDbLine
 10
150
 20
524.05
 11
150
 21
527.05
  0
LINE
  5
17C
100
AcDbEntity
  8
0
  6
ByLayer
 62
  256
370
   -1
100
AcDbLine
 10
150
 20
541.05
 11
130
 21
541.05
  0
LINE
  5
17D
100
AcDbEntity
  8
0
  6
ByLayer
 62
  256
370
   -1
100
AcDbLine
 10
150
 20
527.05
 11
130
 21
527.05
  0
LINE
  5
17E
100
AcDbEntity
  8
0
  6
ByLayer
 62
  256
370
   -1
100
AcDbLine
 10
130
 20
541.05
 11
130
 21
527.05
  0
LINE
  5
17F
100
AcDbEntity
  8
pipe
  6
ByLayer
 62
  256
370
   -1
100
AcDbLine
 10
9.999999999999979
 20
541.05
 11
150
 21
541.05
  0
LINE
  5
180
100
AcDbEntity
  8
pipe
  6
ByLayer
 62
  256
370
   -1
100
AcDbLine
 10
150
 20
527.05
 11
10
 21
527
  0
DIMENSION
  5
181
100
AcDbEntity
  8
pipe
  6
ByLayer
 62
  256
370
   -1
100
AcDbDimension
  2
*D14
 10
150
 20
552
 30
0
 11
79.99999999999997
 21
553.875
 31
0
 70
   32
 71
    5
  3
Standard
 53
0
210
0
220
0
230
1
100
AcDbAlignedDimension
 13
9.999999999999979
 23
541.05
 33
0
 14
150
 24
541.05
 34
0
100
AcDbRotatedDimension
  0
DIMENSION
  5
182
100
AcDbEntity
  8
pipe
  6
ByLayer
 62
  256
370
   -1
100
AcDbDimension
  2
*D15
 10
-50.00000000000001
 20
565
 30
0
 11
-51.875
 21
725
 31
0
 70
   32
 71
    5
  3
Standard
 53
0
210
0
220
0
230
1
100
AcDbAlignedDimension
 13
-7
 23
885
 33
0
 14
-7.00000000000002
 24
565
 34
0
 50
90
100
AcDbRotatedDimension
  0
LINE
  5
183
100
AcDbEntity
  8
0
  6
ByLayer
 62
  256
370
   -1
100
AcDbLine
 10
50
 20
500
 11
50
 21
490
  0
LINE
  5
184
100
AcDbEntity
  8
0
  6
ByLayer
 62
  256
370
   -1
100
AcDbLine
 10
50
 20
490
 11
50
 21
487
  0
LINE
  5
185
100
AcDbEntity
  8
0
  6
ByLayer
 62
  256
370
   -1
100
AcDbLine
 10
50
 20
487
 11
70
 21
487
  0
LINE
  5
186
100
AcDbEntity
  8
0
  6
ByLayer
 62
  256
370
   -1
100
AcDbLine
 10
70
 20
487
 11
70
 21
473
  0
LINE
  5
187
100
AcDbEntity
  8
0
  6
ByLayer
 62
  256
370
   -1
100
AcDbLine
 10
70
 20
473
 11
50
 21
473
  0
LINE
  5
188
100
AcDbEntity
  8
0
  6
ByLayer
 62
  256
370
   -1
100
AcDbLine
 10
50
 20
473
 11
50
 21
460
  0
LINE
  5
189
100
AcDbEntity
  8
length
  6
ByLayer
 62
  256
370
   -1
100
AcDbLine
 10
40
 20
480
 11
189.45
 21
480
  0
LINE
  5
18A
100
AcDbEntity
  8
0
  6
ByLayer
 62
  256
370
   -1
100
AcDbLine
 10
189.45
 20
490
 11
194.45
 21
490
  0
LINE
  5
18B
100
AcDbEntity
  8
0
  6
ByLayer
 62
  256
370
   -1
100
AcDbLine
 10
189.45
 20
470
 11
194.45
 21
470
  0
LINE
  5
18C
100
AcDbEntity
  8
0
  6
ByLayer
 62
  256
370
   -1
100
AcDbLine
 10
194.45
 20
490
 11
194.45
 21
470
  0
LINE
  5
18D
100
AcDbEntity
  8
0
  6
ByLayer
 62
  256
370
   -1
100
AcDbLine
 10
180
 20
490
 11
189.45
 21
490
  0
LINE
  5
18E
100
AcDbEntity
  8
0
  6
ByLayer
 62
  256
370
   -1
100
AcDbLine
 10
189.45
 20
470
 11
180
 21
470
  0
LINE
  5
18F
100
AcDbEntity
  8
0
  6
ByLayer
 62
  256
370
   -1
100
AcDbLine
 10
180
 20
490
 11
180
 21
487
  0
LINE
  5
190
100
AcDbEntity
  8
0
  6
ByLayer
 62
  256
370
   -1
100
AcDbLine
 10
180
 20
470
 11
180
 21
473
  0
LINE
  5
191
100
AcDbEntity
  8
0
  6
ByLayer
 62
  256
370
   -1
100
AcDbLine
 10
180
 20
487
 11
160
 21
487
  0
LINE
  5
192
100
AcDbEntity
  8
0
  6
ByLayer
 62
  256
370
   -1
100
AcDbLine
 10
160
 20
487
 11
160
 21
473
  0
LINE
  5
193
100
AcDbEntity
  8
0
  6
ByLayer
 62
  256
370
   -1
100
AcDbLine
 10
160
 20
473
 11
180
 21
473
  0
LINE
  5
194
100
AcDbEntity
  8
pipe
  6
ByLayer
 62
  256
370
   -1
100
AcDbLine
 10
50
 20
487
 11
180
 21
487
  0
LINE
  5
195
100
AcDbEntity
  8
pipe
  6
ByLayer
 62
  256
370
   -1
100
AcDbLine
 10
180
 20
473
 11
50
 21
473
  0
DIMENSION
  5
196
100
AcDbEntity
  8
pipe
  6
ByLayer
 62
  256
370
   -1
100
AcDbDimension
  2
*D16
 10
180
 20
500
 30
0
 11
115
 21
501.875
 31
0
 70
   32
 71
    5
  3
Standard
 53
0
210
0
220
0
230
1
100
AcDbAlignedDimension
 13
50
 23
487
 33
0
 14
180
 24
487
 34
0
100
AcDbRotatedDimension
  0
DIMENSION
  5
197
100
AcDbEntity
  8
stubs
  6
ByLayer
 62
  256
370
   -1
100
AcDbDimension
  2
*D17
 10
189.45
 20
465
 30
0
 11
184.725
 21
466.875
 31
0
 70
   32
 71
    5
  3
Standard
 53
0
210
0
220
0
230
1
100
AcDbAlignedDimension
 13
180
 23
470
 33
0
 14
189.45
 24
470
 34
0
100
AcDbRotatedDimension
  0
DIMENSION
  5
198
100
AcDbEntity
  8
bottom
  6
ByLayer
 62
  256
370
   -1
100
AcDbDimension
  2
*D18
 10
194.45
 20
465
 30
0
 11
191.95
 21
466.875
 31
0
 70
   32
 71
    5
  3
Standard
 53
0
210
0
220
0
230
1
100
AcDbAlignedDimension
 13
189.45
 23
470
 33
0
 14
194.45
 24
470
 34
0
100
AcDbRotatedDimension
  0
DIMENSION
  5
199
100
AcDbEntity
  8
bottom
  6
ByLayer
 62
  256
370
   -1
100
AcDbDimension
  2
*D19
 10
160
 20
465
 30
0
 11
170
 21
466.875
 31
0
 70
   32
 71
    5
  3
Standard
 53
0
210
0
220
0
230
1
100
AcDbAlignedDimension
 13
180
 23
470
 33
0
 14
160
 24
473
 34
0
100
AcDbRotatedDimension
  0
DIMENSION
  5
19A
100
AcDbEntity
  8
bottom
  6
ByLayer
 62
  256
370
   -1
100
AcDbDimension
  2
*D20
 10
200
 20
470
 30
0
 11
198.125
 21
480
 31
0
 70
   32
 71
    5
  3
Standard
 53
0
210
0
220
0
230
1
100
AcDbAlignedDimension
 13
194.45
 23
490
 33
0
 14
194.45
 24
470
 34
0
 50
90
100
AcDbRotatedDimension
  0
DIMENSION
  5
19B
100
AcDbEntity
  8
bottom
  6
ByLayer
 62
  256
370
   -1
100
AcDbDimension
  2
*D21
 10
168
 20
524.05
 30
0
 11
166.125
 21
534.05
 31
0
 70
   32
 71
    5
  3
Standard
 53
0
210
0
220
0
230
1
100
AcDbAlignedDimension
 13
162.3
 23
544.05
 33
0
 14
162.3
 24
524.05
 34
0
 50
90
100
AcDbRotatedDimension
  0
DIMENSION
  5
19C
100
AcDbEntity
  8
bottom
  6
ByLayer
 62
  256
370
   -1
100
AcDbDimension
  2
*D22
 10
157.3
 20
520
 30
0
 11
153.65
 21
521.875
 31
0
 70
   32
 71
    5
  3
Standard
 53
0
210
0
220
0
230
1
100
AcDbAlignedDimension
 13
150
 23
524.05
 33
0
 14
157.3
 24
524.05
 34
0
100
AcDbRotatedDimension
  0
DIMENSION
  5
19D
100
AcDbEntity
  8
bottom
  6
ByLayer
 62
  256
370
   -1
100
AcDbDimension
  2
*D23
 10
162.3
 20
520
 30
0
 11
159.8
 21
521.875
 31
0
 70
   32
 71
    5
  3
Standard
 53
0
210
0
220
0
230
1
100
AcDbAlignedDimension
 13
157.3
 23
524.05
 33
0
 14
162.3
 24
524.05
 34
0
100
AcDbRotatedDimension
  0
DIMENSION
  5
19E
100
AcDbEntity
  8
bottom
  6
ByLayer
 62
  256
370
   -1
100
AcDbDimension
  2
*D24
 10
150
 20
520
 30
0
 11
140
 21
521.875
 31
0
 70
   32
 71
    5
  3
Standard
 53
0
210
0
220
0
230
1
100
AcDbAlignedDimension
 13
130
 23
527.05
 33
0
 14
150
 24
524.05
 34
0
100
AcDbRotatedDimension
  0
ENDSEC
  0
SECTION
  2
OBJECTS
  0
DICTIONARY
  5
C
330
0
100
AcDbDictionary
281
    1
  3
ACAD_GROUP
350
D
  0
DICTIONARY
  5
D
330
C
100
AcDbDictionary
281
    1
  0
ENDSEC
  0
EOF
